Торрент файл
скачать торрент магнет ссылка Добавлен: 28 июн 2016, 20:50
Размер: 7.94 ГБ
Сидеров: 6
Личеров: 3
Автор

СообщениеДобавлено: 28 июн 2016, 20:50 

Не в сети
Супермодератор
Аватара пользователя
Дата регистрации:
15 фев 2012, 16:44
Возраст: 28
Спасибо: 7165 / 2147
Сообщения: 62258
Перевод: Профессиональный (многоголосый, закадровый)
Субтитры: Русские (форсированные отключаемые, srt (на места отсутствия одноголосого перевода)), английские (полные отключаемые, srt), английские (полные отключаемые, pgs)
Формат: BDRip, MKV, H.264, AC3
Страна: США
Режиссер: Маршалл Брикмен
Жанр: фантастика, триллер
Продолжительность: 01:58:06
Год выпуска: 1986

В ролях: Джон Литгоу, Ричард Консил, Роберт Шенккан, Пол Остин, Адриан Спаркс, Курт Демпстер, Брэн Феррен, Кристофер Коллет, Джилл Айкенберри, Синтия Никсон

Описание: Вундеркинд Пол Стивенс узнаёт, что новый приятель его матери работает в области разработок ядерного вооружения. Проникнув к нему в лабораторию, Пол крадёт некоторое количество плутония для личных нужд и вскоре создаёт собственную ядерную бомбу.

Рейтинг на IMDb: 6.1/10
Рейтинг на КиноПоиск.Ru: отсутствует
Рейтинг MPAA: PG-13

Видео: 1280x692p (1.85:1), 23.976 fps, MPEG4 AVC (х264), ~8 600 kbps avg, 0.405 bit/pixel
Аудио#1: Русский 48 kHz, AC3, 2 ch, ~ 192.00 kbps [Профессиональный (многоголосый, закадровый), TV1000 Action]
Аудио#2: Русский 48 kHz, AC3, 2 ch, ~ 192.00 kbps [Любительский (одноголосый)]
Аудио#3: Английский 48 kHz, AC3, 2 ch, ~ 640.00 kbps [Оригинал]


Рип и синхронизация субтитров:
Исходник: BD-Remux 1080p
Общее
Уникальный идентификатор : 193319018420482263163244262191048179459 (0x916FE37DE1C48F1D8245F82AB6883F03)
Полное имя : \\Fen_3\f\Downloads\The_Manhattan_Project_[tfile.ru].mkv
Формат : Matroska
Версия формата : Version 4 / Version 2
Размер файла : 7,94 Гбайт
Продолжительность : 1 ч. 58 м.
Общий поток : 9630 Кбит/сек
Дата кодирования : UTC 2016-06-27 01:14:52
Программа кодирования : mkvmerge v8.6.1 ('Flying') 64bit
Библиотека кодирования : libebml v1.3.3 + libmatroska v1.4.4

Видео
Идентификатор : 1
Формат : AVC
Формат/Информация : Advanced Video Codec
Профиль формата :
Параметр CABAC формата : Да
Параметр ReFrames формата : 9 кадров
Идентификатор кодека : V_MPEG4/ISO/AVC
Продолжительность : 1 ч. 58 м.
Битрейт : 8600 Кбит/сек
Ширина : 1280 пикселей
Высота : 692 пикселя
Соотношение сторон : 1,85:1
Режим частоты кадров : Постоянный
Частота кадров : 23,976 (24000/1001) кадра/сек
Цветовое пространство : YUV
Субдискретизация насыщенности : 4:2:0
Битовая глубина : 8 бит
Тип развёртки : Прогрессивная
Бит/(Пиксели*Кадры) : 0.405
Размер потока : 7,09 Гбайт (89%)
Заголовок : The_ManhattanS_Project
Библиотека кодирования : x264 core 148 r2665
Настройки программы : cabac=1 / ref=9 / deblock=1:-1:-1 / analyse=0x3:0x133 / me=umh / subme=11 / psy=1 / psy_rd=1.00:0.00 / mixed_ref=0 / me_range=16 / chroma_me=1 / trellis=2 / 8x8dct=1 / cqm=0 / deadzone=21,11 / fast_pskip=0 / chroma_qp_offset=-2 / threads=6 / lookahead_threads=1 / sliced_threads=0 / nr=0 / decimate=1 / interlaced=0 / bluray_compat=0 / constrained_intra=0 / bframes=9 / b_pyramid=2 / b_adapt=2 / b_bias=0 / direct=3 / weightb=1 / open_gop=0 / weightp=2 / keyint=239 / keyint_min=23 / scenecut=40 / intra_refresh=0 / rc_lookahead=30 / rc=2pass / mbtree=1 / bitrate=8600 / ratetol=1.0 / qcomp=0.60 / qpmin=1 / qpmax=69 / qpstep=4 / cplxblur=20.0 / qblur=0.5 / vbv_maxrate=62500 / vbv_bufsize=24000 / nal_hrd=none / filler=0 / ip_ratio=1.40 / aq=3:1.00
Язык : English
Default : Да
Forced : Нет

Аудио #1
Идентификатор : 2
Формат : AC-3
Формат/Информация : Audio Coding 3
Расширение режима : CM (complete main)
Параметр Endianness формата : Big
Идентификатор кодека : A_AC3
Продолжительность : 1 ч. 58 м.
Вид битрейта : Постоянный
Битрейт : 192 Кбит/сек
Каналы : 2 канала
Расположение каналов : Front: L R
Частота : 48,0 КГц
Частота кадров : 31,250 кадров/сек (1536 spf)
Метод сжатия : С потерями
Размер потока : 162 Мбайт (2%)
Заголовок : MVO_TV1000_Action
Язык : Russian
Default : Да
Forced : Нет

Аудио #2
Идентификатор : 3
Формат : AC-3
Формат/Информация : Audio Coding 3
Расширение режима : CM (complete main)
Параметр Endianness формата : Big
Идентификатор кодека : A_AC3
Продолжительность : 1 ч. 58 м.
Вид битрейта : Постоянный
Битрейт : 192 Кбит/сек
Каналы : 2 канала
Расположение каналов : Front: L R
Частота : 48,0 КГц
Частота кадров : 31,250 кадров/сек (1536 spf)
Метод сжатия : С потерями
Размер потока : 162 Мбайт (2%)
Заголовок : VO
Язык : Russian
Default : Нет
Forced : Нет

Аудио #3
Идентификатор : 4
Формат : AC-3
Формат/Информация : Audio Coding 3
Расширение режима : CM (complete main)
Параметр Endianness формата : Big
Идентификатор кодека : A_AC3
Продолжительность : 1 ч. 58 м.
Вид битрейта : Постоянный
Битрейт : 640 Кбит/сек
Каналы : 2 канала
Расположение каналов : Front: L R
Частота : 48,0 КГц
Частота кадров : 31,250 кадров/сек (1536 spf)
Метод сжатия : С потерями
Задержка видео : -5 мс.
Размер потока : 541 Мбайт (7%)
Заголовок : ENG
Язык : English
Default : Нет
Forced : Нет

Текст #1
Идентификатор : 5
Формат : UTF-8
Идентификатор кодека : S_TEXT/UTF8
Идентификатор кодека/Информация : UTF-8 Plain Text
Продолжительность : 1 ч. 13 м.
Битрейт : 7 бит/сек
Count of elements : 70
Размер потока : 4,18 Кбайт (0%)
Заголовок : Forced
Язык : Russian
Default : Да
Forced : Нет

Текст #2
Идентификатор : 6
Формат : UTF-8
Идентификатор кодека : S_TEXT/UTF8
Идентификатор кодека/Информация : UTF-8 Plain Text
Продолжительность : 1 ч. 53 м.
Битрейт : 50 бит/сек
Count of elements : 1231
Размер потока : 42,1 Кбайт (0%)
Заголовок : Full
Язык : English
Default : Нет
Forced : Нет

Текст #3
Идентификатор : 7
Формат : UTF-8
Идентификатор кодека : S_TEXT/UTF8
Идентификатор кодека/Информация : UTF-8 Plain Text
Продолжительность : 1 ч. 53 м.
Битрейт : 49 бит/сек
Count of elements : 1144
Размер потока : 41,4 Кбайт (0%)
Заголовок : Full
Язык : English
Default : Нет
Forced : Нет

Текст #4
Идентификатор : 8
Формат : UTF-8
Идентификатор кодека : S_TEXT/UTF8
Идентификатор кодека/Информация : UTF-8 Plain Text
Продолжительность : 1 ч. 53 м.
Битрейт : 49 бит/сек
Count of elements : 1122
Размер потока : 41,4 Кбайт (0%)
Заголовок : Full
Язык : English
Default : Нет
Forced : Нет

Текст #5
Идентификатор : 9
Формат : PGS
Режим смешивания : zlib
Идентификатор кодека : S_HDMV/PGS
Идентификатор кодека/Информация : Picture based subtitle format used on BDs/HD-DVDs
Продолжительность : 1 ч. 53 м.
Битрейт : 9479 бит/сек
Count of elements : 2288
Размер потока : 7,69 Мбайт (0%)
Заголовок : Full
Язык : English
Default : Нет
Forced : Нет

Меню
00:00:00.000 : en:00:00:00.000
00:09:18.933 : en:00:09:18.933
00:22:35.521 : en:00:22:35.521
00:33:15.493 : en:00:33:15.493
00:52:37.654 : en:00:52:37.654
01:08:08.126 : en:01:08:08.126
01:23:19.494 : en:01:23:19.494
01:37:21.669 : en:01:37:21.669





_________________
Проголосуй за трекер Открытый торрент трекер - RUS-MEDIA.ORG

Проголосуй Открытый торрент трекер - RUS-MEDIA.ORG


Вернуться к началу
 Профиль Отправить личное сообщение  
 
   Похожие торренты   Автор   Торрент   Размер 
В этой теме нет новых непрочитанных сообщений. Манхэттенский проект / The Manhattan Project [фантастика, триллер, 1986] BDRemux 1080р, Mvo

salma3

10 | 13

19.75 ГБ

В этой теме нет новых непрочитанных сообщений. Междоусобный проект / Смертельный проект / The Internecine Project [Боевик, триллер, 1974] BDRip 1080p, Avo

salma3

74 | 32

5.58 ГБ

В этой теме нет новых непрочитанных сообщений. Мой научный проект / My Science Project [фантастика, боевик, комедия, приключения, 1985] BDRip 720p, Mvo

salma3

2 | 2

4.66 ГБ

В этой теме нет новых непрочитанных сообщений. Колосс: Проект Форбина / Colossus: The Forbin Project [фантастика, триллер, 1970] BDRip, Avo

salma3

0 | 0

1.45 ГБ

В этой теме нет новых непрочитанных сообщений. Мой научный проект / My Science Project [фантастика, боевик, комедия, приключения, 1985] BDRip, Mvo

salma3

23 | 4

1.46 ГБ

В этой теме нет новых непрочитанных сообщений. Проект 12: Бункер / Project 12: The Bunker [фантастика, боевик, триллер, приключения, 2016] DVDRip, Avo

salma3

141 | 53

745.95 МБ

В этой теме нет новых непрочитанных сообщений. Колосс: Проект Форбина / Colossus: The Forbin Project [фантастика, триллер, 1970] Blu-ray 1080p, Avo

salma3

0 | 0

28.23 ГБ


Начать новую тему Ответить на тему  [ 1 сообщение ] 




Для Мосгорсуда, Роскомнадзора и рекламодателей:: mosgorsud-torrent[собачка]yandex.ru
cron