Торрент файл
скачать торрент магнет ссылка Добавлен: 22 июн 2016, 20:39
Размер: 14.58 ГБ
Сидеров: 4
Личеров: 2
Автор

СообщениеДобавлено: 22 июн 2016, 20:39 

В сети
Супермодератор
Аватара пользователя
Дата регистрации:
15 фев 2012, 16:44
Возраст: 28
Спасибо: 6642 / 2146
Сообщения: 45689
Перевод: Профессиональный (полное дублирование)
Cубтитры: английские
Формат: BDRemux, MKV, H.264, DTS
Страна: США
Режиссер: Дэвид МакКензи
Жанр: мелодрама, комедия
Продолжительность: 01:37:15
Год выпуска: 2009

В ролях: Эштон Катчер, Энн Хеч, Маргарита Левиева, Себастиан Стэн, Соня Роквэлл, Мария Кончита Алонсо, Харт Бокнер, Винс Аллен, Лэндон Эшворт, Аня Ассанте

Описание: Никки молод, неотразим и пользуется безотказным вниманием представительниц противоположного пола.
Его роман с Самантой основан исключительно на взаимном интересе. Никки интересует ее кредитная карточка и шикарный особняк,
а успешную, но одинокую Саманту — безудержный дикий секс. Но когда Никки встречает Хизер, у циничного жиголо что-то переключается в голове и в сердце…




Видео: 1920x1080p(16:9), 23.976 fps, MPEG-4 AVC (x264), 19,9 Мbps, 0.394 bit/pixel
Аудио: Русский: 48 kHz, DTS, 6 ch, 1510 kbps | [Профессиональный (полное дублирование)] [Лицензия]

General
Unique ID : 236836521689562819410638745788158714496 (0xB22D0E0E3B14FF75883BFA6667022280)
Format : Matroska
Format version : Version 4 / Version 2
File size : 14.6 GiB
Duration : 1h 37mn
Overall bit rate mode : Variable
Overall bit rate : 21.5 Mbps
Movie name : Релиз RussianPeople
Encoded date : UTC 2016-06-22 13:37:33
Writing application : mkvmerge v6.0.0 ('Coming Up For Air') built on Jan 20 2013 09:52:00
Writing library : libebml v1.3.0 + libmatroska v1.4.0

Video
ID : 1
Format : AVC
Format/Info : Advanced Video Codec
Format profile :
Format settings, CABAC : Yes
Format settings, ReFrames : 4 frames
Codec ID : V_MPEG4/ISO/AVC
Duration : 1h 37mn
Bit rate mode : Variable
Bit rate : 19.6 Mbps
Maximum bit rate : 32.0 Mbps
Width : 1 920 pixels
Height : 1 080 pixels
Display aspect ratio : 16:9
Frame rate mode : Constant
Frame rate : 23.976 fps
Standard : NTSC
Color space : YUV
Chroma subsampling : 4:2:0
Bit depth : 8 bits
Scan type : Progressive
Bits/(Pixel*Frame) : 0.394
Stream size : 13.3 GiB (91%)
Title : Бабник
Default : Yes
Forced : No
Color range : Limited
Color primaries : BT.709
Transfer characteristics : BT.709
Matrix coefficients : BT.709

Audio
ID : 2
Format : DTS
Format/Info : Digital Theater Systems
Mode : 16
Format settings, Endianness : Big
Codec ID : A_DTS
Duration : 1h 37mn
Bit rate mode : Constant
Bit rate : 1 510 Kbps
Channel(s) : 6 channels
Channel positions : Front: L C R, Side: L R, LFE
Sampling rate : 48.0 KHz
Bit depth : 24 bits
Compression mode : Lossy
Stream size : 1.02 GiB (7%)
Title : Дубляж
Language : Russian
Default : Yes
Forced : No

Text
ID : 3
Format : UTF-8
Codec ID : S_TEXT/UTF8
Codec ID/Info : UTF-8 Plain Text
Language : English
Default : No
Forced : No

Menu
00:00:00.000 : en:Main Title / One Pick Up Line
00:07:20.921 : en:Creating Equity
00:14:16.878 : en:The Mice Will Party
00:20:07.436 : en:Sorry for Getting Caught
00:28:51.168 : en:No Coffee, No Hikes
00:35:31.359 : en:Hustling the Hustler
00:46:21.050 : en:6 Inches & A Pretty Face
00:50:57.701 : en:Homeless and Friendless
01:00:51.002 : en:Kissing a lot of Frogs
01:13:54.410 : en:A Moment of Clarity
01:20:51.410 : en:A Five for the Grocery Boy
01:30:51.885 : en:End Credits





_________________
Проголосуй за трекер Открытый торрент трекер - RUS-MEDIA.ORG

Проголосуй Открытый торрент трекер - RUS-MEDIA.ORG



реклама партнёра


Вернуться к началу
 Профиль Отправить личное сообщение  
 
   Похожие торренты   Автор   Торрент   Размер 
В этой теме нет новых непрочитанных сообщений. Бабник / Spread [драма, мелодрама, комедия, 2009] BDRip 720p, Dub+Sub

salma3

209 | 31

6.09 ГБ

В этой теме нет новых непрочитанных сообщений. Бабник / Spread [мелодрама, драма, 2009] BDRip, Dub

salma3

23 | 8

1.46 ГБ

В этой теме нет новых непрочитанных сообщений. Будь что будет / Whatever Works [мелодрама, комедия, 2009] BDRemux 1080p, Mvo

salma3

52 | 17

23.66 ГБ

В этой теме нет новых непрочитанных сообщений. 500 дней лета / (500) Days of Summer [Мелодрама, комедия, 2009] BDRemux 1080p, Dub

salma3

7 | 3

27.89 ГБ

В этой теме нет новых непрочитанных сообщений. Домохозяйка / HouseSitter [мелодрама, комедия, 1992] BDRemux 1080p, Mvo

salma3

12 | 4

19.05 ГБ

В этой теме нет новых непрочитанных сообщений. Думай, как мужчина / Think Like a Man [мелодрама, комедия, 2012] BDRemux 1080p, Mvo

salma3

19 | 48

31.54 ГБ

В этой теме нет новых непрочитанных сообщений. Друзья / Friends [S01] [комедия, мелодрама, 1994] BDRemux 1080p, Mvo

salma3

10 | 18

60.23 ГБ


Начать новую тему Ответить на тему  [ 1 сообщение ] 




Для Мосгорсуда, Роскомнадзора и рекламодателей:: mosgorsud-torrent[собачка]yandex.ru