Торрент файл
скачать торрент магнет ссылка Добавлен: 14 июн 2016, 14:20
Размер: 3.86 ГБ
Сидеров: 48
Личеров: 3
Автор

СообщениеДобавлено: 14 июн 2016, 14:20 

Не в сети
Супермодератор
Аватара пользователя
Дата регистрации:
15 фев 2012, 16:44
Возраст: 28
Спасибо: 7058 / 2147
Сообщения: 58717
Перевод: Профессиональный (многоголосый, закадровый) (iTunes)
Cубтитры: Русские, украинские, английские
Формат: BDRip, MKV, H.264, AC3
Страна: США
Режиссер: Майкл Шоуолтер
Жанр: Драма, Мелодрама, Комедия
Продолжительность: 1:30:11
Год выпуска: 2015

В ролях: Салли Филд, Макс Гринфилд, Эдмунд Люпински, Бет Берс, Норма Майклс, Стивен Рут, Венди МакЛендон-Кови, Кумэйл Нанджиани, Ребекка Високки, Тайн Дейли

Описание: Дорис Миллер — типичный Нью-Йоркский офисный работник в возрасте за шестьдесят, после смерти своей матери начинает посещать семинары по самопомощи. Приняв советы от гуру мотивации, Дорис становится сексуально одержимой своим новым коллегой Джоном, который вдвое её моложе.

Рейтинг на IMDB: 6.9/10
Рейтинг MPAA:R

Видео: 1280x688p (1.85:1), 23.976 fps, AVC MPEG-4 (x264), ~5000 kbps avg., 0.237 bit/pixel
Аудио#1: Русский: 48 KHz, AC3, 6 (Front: L C R, Side: L R, LFE) ch, 384 kbps [Профессиональный (многоголосый, закадровый) (iTunes)]
Аудио#2: Английский: 48 KHz, AC3, 6 (Front: L C R, Side: L R, LFE) ch, 640 kbps [Оригинал]

Релиз от: : lexandros



Общее
Формат : Matroska
Версия формата : Version 2
Размер файла : 3,86 Гбайт
Продолжительность : 1 ч. 30 м.
Общий поток : 6133 Кбит/сек
Название фильма : Hello, My Name Is Doris (2015). BDRip by Lexandros
Дата кодирования : UTC 2016-06-13 21:36:36
Программа кодирования : mkvmerge v8.5.2 ('Crosses') 32bit
Библиотека кодирования : libebml v1.3.3 + libmatroska v1.4.4

Видео
Идентификатор : 1
Формат : AVC
Формат/Информация : Advanced Video Codec
Профиль формата :
Параметр CABAC формата : Да
Параметр ReFrames формата : 9 кадров
Идентификатор кодека : V_MPEG4/ISO/AVC
Продолжительность : 1 ч. 30 м.
Битрейт : 5000 Кбит/сек
Ширина : 1280 пикселей
Высота : 688 пикселей
Соотношение сторон : 1,85:1
Режим частоты кадров : Постоянный
Частота кадров : 23,976 (24000/1001) кадра/сек
Цветовое пространство : YUV
Субдискретизация насыщенности : 4:2:0
Битовая глубина : 8 бит
Тип развёртки : Прогрессивная
Бит/(Пиксели*Кадры) : 0.237
Размер потока : 3,15 Гбайт (82%)
Библиотека кодирования : x264 core 148 r2638 7599210
Настройки программы : cabac=1 / ref=9 / deblock=1:-1:-1 / analyse=0x3:0x133 / me=umh / subme=11 / psy=1 / psy_rd=1.05:0.00 / mixed_ref=1 / me_range=32 / chroma_me=1 / trellis=2 / 8x8dct=1 / cqm=0 / deadzone=21,11 / fast_pskip=0 / chroma_qp_offset=-2 / threads=12 / lookahead_threads=3 / sliced_threads=0 / nr=0 / decimate=0 / interlaced=0 / bluray_compat=0 / constrained_intra=0 / bframes=11 / b_pyramid=2 / b_adapt=2 / b_bias=0 / direct=3 / weightb=1 / open_gop=0 / weightp=2 / keyint=240 / keyint_min=23 / scenecut=40 / intra_refresh=0 / rc_lookahead=60 / rc=2pass / mbtree=0 / bitrate=5000 / ratetol=1.0 / qcomp=0.70 / qpmin=10 / qpmax=51 / qpstep=4 / cplxblur=20.0 / qblur=0.5 / vbv_maxrate=62500 / vbv_bufsize=78125 / nal_hrd=none / filler=0 / ip_ratio=1.40 / pb_ratio=1.20 / aq=3:0.85
Default : Да
Forced : Нет

Аудио #1
Идентификатор : 2
Формат : AC-3
Формат/Информация : Audio Coding 3
Расширение режима : CM (complete main)
Параметр Endianness формата : Big
Идентификатор кодека : A_AC3
Продолжительность : 1 ч. 30 м.
Вид битрейта : Постоянный
Битрейт : 384 Кбит/сек
Каналы : 6 каналов
Расположение каналов : Front: L C R, Side: L R, LFE
Частота : 48,0 КГц
Частота кадров : 31,250 кадров/сек (1536 spf)
Метод сжатия : С потерями
Размер потока : 248 Мбайт (6%)
Заголовок : SDI media
Язык : Russian
Default : Да
Forced : Нет

Аудио #2
Идентификатор : 3
Формат : AC-3
Формат/Информация : Audio Coding 3
Расширение режима : CM (complete main)
Параметр Endianness формата : Big
Идентификатор кодека : A_AC3
Продолжительность : 1 ч. 30 м.
Вид битрейта : Постоянный
Битрейт : 640 Кбит/сек
Каналы : 6 каналов
Расположение каналов : Front: L C R, Side: L R, LFE
Частота : 48,0 КГц
Частота кадров : 31,250 кадров/сек (1536 spf)
Метод сжатия : С потерями
Размер потока : 413 Мбайт (10%)
Заголовок : Original
Язык : English
Default : Нет
Forced : Нет

Текст #1
Идентификатор : 4
Формат : PGS
Режим смешивания : zlib
Идентификатор кодека : S_HDMV/PGS
Идентификатор кодека/Информация : Picture based subtitle format used on BDs/HD-DVDs
Продолжительность : 1 ч. 28 м.
Битрейт : 19,5 Кбит/сек
Count of elements : 2972
Размер потока : 12,3 Мбайт (0%)
Язык : English
Default : Нет
Forced : Нет

Текст #2
Идентификатор : 5
Формат : PGS
Режим смешивания : zlib
Идентификатор кодека : S_HDMV/PGS
Идентификатор кодека/Информация : Picture based subtitle format used on BDs/HD-DVDs
Продолжительность : 1 ч. 25 м.
Битрейт : 17,0 Кбит/сек
Count of elements : 2466
Размер потока : 10,4 Мбайт (0%)
Язык : English
Default : Нет
Forced : Нет

Текст #3
Идентификатор : 6
Формат : PGS
Режим смешивания : zlib
Идентификатор кодека : S_HDMV/PGS
Идентификатор кодека/Информация : Picture based subtitle format used on BDs/HD-DVDs
Продолжительность : 1 ч. 29 м.
Битрейт : 23,2 Кбит/сек
Count of elements : 3048
Размер потока : 14,8 Мбайт (0%)
Язык : English
Default : Нет
Forced : Нет

Текст #4
Идентификатор : 7
Формат : PGS
Режим смешивания : zlib
Идентификатор кодека : S_HDMV/PGS
Идентификатор кодека/Информация : Picture based subtitle format used on BDs/HD-DVDs
Продолжительность : 1 ч. 22 м.
Битрейт : 68 бит/сек
Count of elements : 6
Размер потока : 41,6 Кбайт (0%)
Язык : Russian
Default : Нет
Forced : Нет

Текст #5
Идентификатор : 8
Формат : PGS
Режим смешивания : zlib
Идентификатор кодека : S_HDMV/PGS
Идентификатор кодека/Информация : Picture based subtitle format used on BDs/HD-DVDs
Продолжительность : 1 ч. 29 м.
Битрейт : 26,3 Кбит/сек
Count of elements : 2558
Размер потока : 16,8 Мбайт (0%)
Язык : Russian
Default : Нет
Forced : Нет

Текст #6
Идентификатор : 9
Формат : PGS
Режим смешивания : zlib
Идентификатор кодека : S_HDMV/PGS
Идентификатор кодека/Информация : Picture based subtitle format used on BDs/HD-DVDs
Продолжительность : 1 ч. 29 м.
Битрейт : 23,4 Кбит/сек
Count of elements : 2506
Размер потока : 14,9 Мбайт (0%)
Язык : Ukrainian
Default : Нет
Forced : Нет



_________________
Проголосуй за трекер Открытый торрент трекер - RUS-MEDIA.ORG

Проголосуй Открытый торрент трекер - RUS-MEDIA.ORG


Вернуться к началу
 Профиль Отправить личное сообщение  
 
   Похожие торренты   Автор   Торрент   Размер 
В этой теме нет новых непрочитанных сообщений. Здравствуйте, меня зовут Дорис / Hello, My Name Is Doris [Драма, мелодрама, комедия, 2015] WEB-DLRip, Mvo [iTunes]

salma3

13 | 0

1.46 ГБ

В этой теме нет новых непрочитанных сообщений. Бернард и Дорис / Bernard and Doris [драма, комедия, биография, 2006] WEB-DLRip 720p, Mvo

salma3

48 | 16

3.62 ГБ

В этой теме нет новых непрочитанных сообщений. Счастье / Glück (Дорис Дёрри / Doris Dörrie) [2012г., Германия, драма, HDRip] sub

Alfredovich

26 | 0

1.36 ГБ

В этой теме нет новых непрочитанных сообщений. Уже скучаю по тебе / Miss You Already [Драма, мелодрама, комедия, 2015] BDRip 720p, dvo

Dracon

995 | 90

4.52 ГБ

В этой теме нет новых непрочитанных сообщений. Меня зовут Джиг Робот / Lo chiamavano Jeeg Robot [Боевик, фантастика, драма, триллер, 2015] WEBRip 720p, Avo

salma3

1475 | 36

1.58 ГБ

В этой теме нет новых непрочитанных сообщений. Меня зовут Ленни / My Name Is Lenny [драма, спорт, 2017] BDRip 720p, Mvo

salma3

216 | 18

3.51 ГБ

В этой теме нет новых непрочитанных сообщений. Меня зовут Троица / Lo chiamavano Trinita / They Call Me Trinity [комедия, вестерн, 1970] BDRip 720p, Mvo+Dvo+Avo+Sub

salma3

67 | 42

7.95 ГБ


Начать новую тему Ответить на тему  [ 1 сообщение ] 




Для Мосгорсуда, Роскомнадзора и рекламодателей:: mosgorsud-torrent[собачка]yandex.ru
cron