Торрент файл
скачать торрент магнет ссылка Добавлен: 09 июн 2016, 12:22
Размер: 23.83 ГБ
Сидеров: 4
Личеров: 3
Автор

СообщениеДобавлено: 09 июн 2016, 12:22 

Не в сети
Супермодератор
Аватара пользователя
Дата регистрации:
15 фев 2012, 16:44
Возраст: 28
Спасибо: 6915 / 2147
Сообщения: 52578
Перевод: Профессиональный (полное дублирование)
Субтитры: Русские (PGS)
Формат: BDRemux, MKV, H.264, DTS
Страна: США
Режиссер: Квентин Тарантино
Жанр: боевик
Продолжительность: 01:50:43
Год выпуска: 2003

В ролях: Ума Турман, Люси Лью, Вивика А. Фокс, Дэрил Ханна, Дэвид Кэрредин, Майкл Мэдсен, Джули Дрейфус, Тиаки Курияма, Сонни Тиба, Майкл Боуэн

Описание: В беременную наемную убийцу по кличке Черная Мамба во время бракосочетания стреляет человек по имени Билл. Пуля в голове жертвы, кровь на подвенечном платье, темнота… Но голова у Черной Мамбы оказалась крепкой.
Пролежав четыре года в коме, Невеста приходит в себя. Она горит желанием найти тех, кто ее предал. Теперь только безжалостная месть успокоит сердце Черной Мамбы, и она начинает убивать поочередно всех членов банды Билла, оставляя главаря напоследок.




Видео: 1920x1080p (16:9), 23.976 fps, MPEG-4 AVC (x264), 29.4 Мbps, 0.592 bit/pixel
Аудио: Русский 48 kHz, DTS, 6 ch, 755 kbps, 16-bit [Профессиональный (полное дублирование)] [Лицензия]


General
Unique ID : 224705248827643270338750904845048449651 (0xA90CA81FF82A76D3A6BA9CF30F038A73)
Format : Matroska
Format version : Version 4 / Version 2
File size : 23.8 GiB
Duration : 1h 50mn
Overall bit rate mode : Variable
Overall bit rate : 30.8 Mbps
Movie name : Релиз RussianPeople
Encoded date : UTC 2016-06-06 17:56:10
Writing application : mkvmerge v6.0.0 ('Coming Up For Air') built on Jan 20 2013 09:52:00
Writing library : libebml v1.3.0 + libmatroska v1.4.0

Video
ID : 1
Format : AVC
Format/Info : Advanced Video Codec
Format profile :
Format settings, CABAC : Yes
Format settings, ReFrames : 3 frames
Codec ID : V_MPEG4/ISO/AVC
Duration : 1h 50mn
Bit rate mode : Variable
Bit rate : 29.4 Mbps
Maximum bit rate : 40.0 Mbps
Width : 1 920 pixels
Height : 1 080 pixels
Display aspect ratio : 16:9
Frame rate mode : Constant
Frame rate : 23.976 fps
Color space : YUV
Chroma subsampling : 4:2:0
Bit depth : 8 bits
Scan type : Progressive
Bits/(Pixel*Frame) : 0.592
Stream size : 22.8 GiB (96%)
Title : Убить Билла Vol.1
Default : Yes
Forced : No

Audio
ID : 2
Format : DTS
Format/Info : Digital Theater Systems
Mode : 16
Format settings, Endianness : Big
Codec ID : A_DTS
Duration : 1h 50mn
Bit rate mode : Constant
Bit rate : 755 Kbps
Channel(s) : 6 channels
Channel positions : Front: L C R, Side: L R, LFE
Sampling rate : 48.0 KHz
Bit depth : 24 bits
Compression mode : Lossy
Stream size : 598 MiB (2%)
Title : Дубляж
Language : Russian
Default : Yes
Forced : No

Text
ID : 3
Format : PGS
Muxing mode : zlib
Codec ID : S_HDMV/PGS
Codec ID/Info : The same subtitle format used on BDs/HD-DVDs
Language : Russian
Default : Yes
Forced : No




_________________
Проголосуй за трекер Открытый торрент трекер - RUS-MEDIA.ORG

Проголосуй Открытый торрент трекер - RUS-MEDIA.ORG



реклама партнёра


Вернуться к началу
 Профиль Отправить личное сообщение  
 
   Похожие торренты   Автор   Торрент   Размер 
В этой теме нет новых непрочитанных сообщений. Убить Билла 2 / Kill Bill: Vol. 2 [боевик, триллер, криминал, 2004] BDRemux 1080p, Dub

salma3

7 | 4

26.81 ГБ

В этой теме нет новых непрочитанных сообщений. Прикончи их всех / Kill'em All [боевик, 2017] BDRemux 1080p, Mvo [Лицензия]

salma3

158 | 151

18.55 ГБ

В этой теме нет новых непрочитанных сообщений. Приказ: Убить / Kill Order [фантастика, боевик, 2017] DVDRip, Dvo

salma3

0 | 0

1.25 ГБ

В этой теме нет новых непрочитанных сообщений. Убить заново / Перезагрузка / Re-Kill [ужасы, фантастика, боевик, триллер, 2015] WEB-DLRip, Dvo

salma3

2458 | 140

1.45 ГБ

В этой теме нет новых непрочитанных сообщений. Смерти вопреки / Нико-2 / Hard to Kill [боевик, триллер, драма, криминал, 1990] BDRemux 1080p, Dub+Mvo+Mvo+3Avo+Sub

salma3

23 | 10

18.68 ГБ

В этой теме нет новых непрочитанных сообщений. Убить гонца / Kill the Messenger (Майкл Куэста) [боевик, триллер, драма, 2014] HDRip, Dub [лицензия]

Dracon

7 | 2

1.46 ГБ

В этой теме нет новых непрочитанных сообщений. Невероятные приключения Билла и Теда / Bill & Ted's Excellent Adventure [фантастика, комедия, приключения, 1989] BDRip, Dvo

salma3

62 | 14

1.45 ГБ


Начать новую тему Ответить на тему  [ 1 сообщение ] 




Для Мосгорсуда, Роскомнадзора и рекламодателей:: mosgorsud-torrent[собачка]yandex.ru
cron