Торрент файл
скачать торрент магнет ссылка Добавлен: 09 июн 2016, 12:20
Размер: 26.81 ГБ
Сидеров: 7
Личеров: 4
Автор

СообщениеДобавлено: 09 июн 2016, 12:20 

Не в сети
Супермодератор
Аватара пользователя
Дата регистрации:
15 фев 2012, 16:44
Возраст: 28
Спасибо: 6468 / 2129
Сообщения: 40699
Убить Билла 2 / Kill Bill: Vol. 2


«Решающий удар»

Перевод: Профессиональный (полное дублирование)
Субтитры: Русские (PGS)
Формат: BDRemux, MKV, H.264, DTS
Страна: США
Режиссер: Квентин Тарантино
Жанр: боевик, триллер, криминал
Продолжительность: 02:16:57
Год выпуска: 2004

В ролях: Ума Турман, Дэвид Кэрредин, Цзя-Хуэй Лю, Перла Аней-Жардине, Ларри Бишоп, Майкл Мэдсен, Дэрил Ханна, Майкл Паркс, Бо Свенсон, Дженни Эппер

Описание: Вычеркнув двоих из смертельного списка, Невеста лишь наполовину приблизилась к цели.
Теперь на очереди Бад и Элли Драйвер, уже приговоренные воскресшей жертвой! Еще два опасных шага перед последней схваткой, в которой она должна Убить Билла!..




Видео: 1920x1080p (16:9), 23.976 fps, MPEG-4 AVC (x264), 26.7 Mbps, 0.537 bit/pixel
Аудио: Русский 48 kHz, DTS, 6 ch, 755 kbps, 16-bit Профессиональный (полное дублирование) [Лицензия]


General
Unique ID : 221675815841205523509615069285223728560 (0xA6C5358C00688A6F88469C0309B785B0)
Format : Matroska
Format version : Version 4 / Version 2
File size : 26.8 GiB
Duration : 2h 16mn
Overall bit rate mode : Variable
Overall bit rate : 28.0 Mbps
Movie name : Релиз RussianPeople
Encoded date : UTC 2016-06-06 18:33:19
Writing application : mkvmerge v6.0.0 ('Coming Up For Air') built on Jan 20 2013 09:52:00
Writing library : libebml v1.3.0 + libmatroska v1.4.0

Video
ID : 1
Format : AVC
Format/Info : Advanced Video Codec
Format profile :
Format settings, CABAC : Yes
Format settings, ReFrames : 3 frames
Codec ID : V_MPEG4/ISO/AVC
Duration : 2h 16mn
Bit rate mode : Variable
Bit rate : 26.7 Mbps
Maximum bit rate : 40.0 Mbps
Width : 1 920 pixels
Height : 1 080 pixels
Display aspect ratio : 16:9
Frame rate mode : Constant
Frame rate : 23.976 fps
Color space : YUV
Chroma subsampling : 4:2:0
Bit depth : 8 bits
Scan type : Progressive
Bits/(Pixel*Frame) : 0.537
Stream size : 25.6 GiB (95%)
Title : Убить Билла Vol.2
Default : Yes
Forced : No

Audio
ID : 2
Format : DTS
Format/Info : Digital Theater Systems
Mode : 16
Format settings, Endianness : Big
Codec ID : A_DTS
Duration : 2h 16mn
Bit rate mode : Constant
Bit rate : 755 Kbps
Channel(s) : 6 channels
Channel positions : Front: L C R, Side: L R, LFE
Sampling rate : 48.0 KHz
Bit depth : 24 bits
Compression mode : Lossy
Stream size : 739 MiB (3%)
Title : Дубляж
Language : Russian
Default : Yes
Forced : No

Text
ID : 3
Format : PGS
Muxing mode : zlib
Codec ID : S_HDMV/PGS
Codec ID/Info : The same subtitle format used on BDs/HD-DVDs
Language : Russian
Default : Yes
Forced : No




_________________
Проголосуй за трекер Открытый торрент трекер - RUS-MEDIA.ORG

Проголосуй Открытый торрент трекер - RUS-MEDIA.ORG



реклама партнёра


Вернуться к началу
 Профиль Отправить личное сообщение  
 
   Похожие торренты   Автор   Торрент   Размер 
В этой теме нет новых непрочитанных сообщений. Убить Билла / Kill Bill: Vol. 1 [боевик, 2003] BDRemux 1080p, Dub

salma3

4 | 3

23.83 ГБ

В этой теме нет новых непрочитанных сообщений. Смерти вопреки / Нико-2 / Hard to Kill [боевик, триллер, драма, криминал, 1990] BDRemux 1080p, Dub+Mvo+Mvo+3Avo+Sub

salma3

23 | 10

18.68 ГБ

В этой теме нет новых непрочитанных сообщений. Убить гонца / Kill the Messenger (Майкл Куэста) [боевик, триллер, драма, 2014] BDRip 1080p, Dub+Sub [Лицензия]

Dracon

57 | 45

11.34 ГБ

В этой теме нет новых непрочитанных сообщений. Превосходство Борна / The Bourne Supremacy [Боевик, триллер, криминал, 2004] BDRemux 1080p, Dub

salma3

0 | 10

26.34 ГБ

В этой теме нет новых непрочитанных сообщений. Намерение - убить / Intent to Kill [боевик, триллер, 1992] DVDRip, avo

salma3

6 | 3

1.46 ГБ

В этой теме нет новых непрочитанных сообщений. Убить заново / Перезагрузка / Re-Kill [ужасы, фантастика, боевик, триллер, 2015] WEB-DLRip, Dvo

salma3

2458 | 139

1.45 ГБ

В этой теме нет новых непрочитанных сообщений. Убить гонца / Kill the Messenger (Майкл Куэста) [боевик, триллер, драма, 2014] HDRip, dvo

Dracon

13 | 3

1.46 ГБ


Начать новую тему Ответить на тему  [ 1 сообщение ] 




Для Мосгорсуда, Роскомнадзора и рекламодателей:: mosgorsud-torrent[собачка]yandex.ru