Торрент файл
скачать торрент магнет ссылка Добавлен: 09 июн 2016, 12:02
Размер: 7.84 ГБ
Сидеров: 71
Личеров: 22
Автор

СообщениеДобавлено: 09 июн 2016, 12:02 

Не в сети
Супермодератор
Аватара пользователя
Дата регистрации:
15 фев 2012, 16:44
Возраст: 28
Спасибо: 6656 / 2146
Сообщения: 46021
Год выпуска: 2003
Жанр: боевик, триллер, драма, военный
Выпущено: США
Режиссер: Антуан Фукуа

В ролях: Брюс Уиллис , Моника Беллуччи , Коул Хаузер , Имонн Уолкер , Джонни Месснер , Ник Чинланд , Чарльз Ингрэм , Пол Френсис , Чад Смит , Том Скеррит , Малик Боуэнс , Авовиейи Агие

Перевод: Дублированный, Профессиональный многоголосый, Авторский одноголосый


Сюжет фильма:
Команда по выполнению спецопераций особой сложности послана в джунгли, в самое сердце Нигерии. Задача отважных ребят - разыскать и освободить из плена врача.
Когда они находят несчастную женщину в забытой богом деревеньке, выясняется, что характер операции надо срочно менять: врач заявляет, что покинет джунгли, только если вместе с ней спецбригада прихватит еще 70 человек беженцев.



Качество: BDRip 720p
Формат: AVC (библиотека кодирования x.264)
Контейнер (Расширение): MKV
Видео: 1280x534, 6983 Кбит/сек, 23,976 кадр/сек, 0,426 Бит/[Пиксели*Кадры]
Аудио №1: русский / AC3 / 5.1 / 48 kHz / 448 kbps / 16 bit |Дублированный|
Аудио №2: русский / AC3 / 5.1 / 48 kHz / 448 kbps / 16 bit |Профессиональный многоголосый #1|
Аудио №3: русский / AC3 / 5.1 / 48 kHz / 384 kbps / 16 bit |Профессиональный многоголосый #2|
Аудио №4: русский / AC3 / 5.1 / 48 kHz / 384 kbps / 16 bit |Авторский одноголосый, Антон Карповский|
Аудио №5: английский / AC3 / 5.1 / 48 kHz / 448 kbps /
Субтитры: русские, английские
Навигация по главам(Чаптеры): есть
Продолжительность: 02:00:55
Автор рипа: Сообщество:


Format : Matroska
Format version : Version 2
File size : 7.84 GiB
Duration : 2h 0mn
Overall bit rate : 9 280 Kbps
Movie name : Slezy solnca.(2003).BDRip.720p.[denis100]
Encoded date : UTC 2016-06-08 07:11:45
Writing application : mkvmerge v5.8.0 ('No Sleep / Pillow') built on Sep 2 2012 15:37:04
Writing library : libebml v1.2.3 + libmatroska v1.3.0
Video
ID : 1
Format : AVC
Format/Info : Advanced Video Codec
Format profile : High@L4.1
Format settings, CABAC : Yes
Format settings, ReFrames : 11 frames
Codec ID : V_MPEG4/ISO/AVC
Duration : 2h 0mn
Bit rate : 6 983 Kbps
Width : 1 280 pixels
Height : 534 pixels
Display aspect ratio : 2.40:1
Frame rate : 23.976 fps
Color space : YUV
Chroma subsampling : 4:2:0
Bit depth : 8 bits
Scan type : Progressive
Bits/(Pixel*Frame) : 0.426
Stream size : 5.90 GiB (75%)
Title : Slezy solnca.(2003).BDRip.720p.[denis100]
Writing library : x264 core 148 r2692 64f4e24
Encoding settings : cabac=1 / ref=11 / deblock=1:-3:-3 / analyse=0x3:0x133 / me=umh / subme=11 / psy=1 / psy_rd=1.00:0.10 / mixed_ref=1 / me_range=32 / chroma_me=1 / trellis=2 / 8x8dct=1 / cqm=0 / deadzone=21,11 / fast_pskip=0 / chroma_qp_offset=-3 / threads=6 / lookahead_threads=1 / sliced_threads=0 / nr=0 / decimate=1 / interlaced=0 / bluray_compat=0 / constrained_intra=0 / bframes=10 / b_pyramid=2 / b_adapt=2 / b_bias=0 / direct=3 / weightb=1 / open_gop=0 / weightp=2 / keyint=240 / keyint_min=23 / scenecut=40 / intra_refresh=0 / rc=crf / mbtree=0 / crf=16.8 / qcomp=0.60 / qpmin=0 / qpmax=69 / qpstep=4 / ip_ratio=1.40 / pb_ratio=1.30 / aq=2:0.90
Language : English
Default : Yes
Forced : No
Audio #1
ID : 2
Format : AC-3
Format/Info : Audio Coding 3
Mode extension : CM (complete main)
Codec ID : A_AC3
Duration : 2h 0mn
Bit rate mode : Constant
Bit rate : 448 Kbps
Channel(s) : 6 channels
Channel positions : Front: L C R, Side: L R, LFE
Sampling rate : 48.0 KHz
Bit depth : 16 bits
Compression mode : Lossy
Stream size : 387 MiB (5%)
Title : Дубляж
Language : Russian
Default : Yes
Forced : No
Audio #2
ID : 3
Format : AC-3
Format/Info : Audio Coding 3
Mode extension : CM (complete main)
Codec ID : A_AC3
Duration : 2h 0mn
Bit rate mode : Constant
Bit rate : 448 Kbps
Channel(s) : 6 channels
Channel positions : Front: L C R, Side: L R, LFE
Sampling rate : 48.0 KHz
Bit depth : 16 bits
Compression mode : Lossy
Stream size : 387 MiB (5%)
Title : MVO
Language : Russian
Default : No
Forced : No
Audio #3
ID : 4
Format : AC-3
Format/Info : Audio Coding 3
Mode extension : CM (complete main)
Codec ID : A_AC3
Duration : 2h 0mn
Bit rate mode : Constant
Bit rate : 384 Kbps
Channel(s) : 6 channels
Channel positions : Front: L C R, Side: L R, LFE
Sampling rate : 48.0 KHz
Bit depth : 16 bits
Compression mode : Lossy
Stream size : 332 MiB (4%)
Title : MVO
Language : Russian
Default : No
Forced : No
Audio #4
ID : 5
Format : AC-3
Format/Info : Audio Coding 3
Mode extension : CM (complete main)
Codec ID : A_AC3
Duration : 2h 0mn
Bit rate mode : Constant
Bit rate : 384 Kbps
Channel(s) : 6 channels
Channel positions : Front: L C R, Side: L R, LFE
Sampling rate : 48.0 KHz
Bit depth : 16 bits
Compression mode : Lossy
Stream size : 332 MiB (4%)
Title : AVO, Karpovskiy
Language : Russian
Default : No
Forced : No
Audio #5
ID : 6
Format : AC-3
Format/Info : Audio Coding 3
Mode extension : CM (complete main)
Codec ID : A_AC3
Duration : 2h 0mn
Bit rate mode : Constant
Bit rate : 448 Kbps
Channel(s) : 6 channels
Channel positions : Front: L C R, Side: L R, LFE
Sampling rate : 48.0 KHz
Bit depth : 16 bits
Compression mode : Lossy
Stream size : 387 MiB (5%)
Language : English
Default : No
Forced : No
Text #1
ID : 7
Format : UTF-8
Codec ID : S_TEXT/UTF8
Codec ID/Info : UTF-8 Plain Text
Language : Russian
Default : No
Forced : No
Text #2
ID : 8
Format : UTF-8
Codec ID : S_TEXT/UTF8
Codec ID/Info : UTF-8 Plain Text
Language : English
Default : No
Forced : No
Menu
00:00:00.000 : en:00:00:00.000
00:07:31.826 : en:00:07:31.826
00:15:26.467 : en:00:15:26.467
00:23:23.569 : en:00:23:23.569
00:30:12.811 : en:00:30:12.811
00:36:49.666 : en:00:36:49.666
00:45:13.544 : en:00:45:13.544
00:53:35.879 : en:00:53:35.879
01:03:13.081 : en:01:03:13.081
01:09:24.494 : en:01:09:24.494
01:16:02.892 : en:01:16:02.892
01:24:27.604 : en:01:24:27.604
01:32:14.821 : en:01:32:14.821
01:39:17.827 : en:01:39:17.827
01:44:19.503 : en:01:44:19.503
01:48:34.925 : en:01:48:34.925
x264 [info]: frame I:1339 Avg QP:16.12 size:107187
x264 [info]: frame P:34907 Avg QP:17.46 size: 64312
x264 [info]: frame B:137706 Avg QP:19.48 size: 29841


_________________
Проголосуй за трекер Открытый торрент трекер - RUS-MEDIA.ORG

Проголосуй Открытый торрент трекер - RUS-MEDIA.ORG



реклама партнёра


Вернуться к началу
 Профиль Отправить личное сообщение  
 
   Похожие торренты   Автор   Торрент   Размер 
В этой теме нет новых непрочитанных сообщений. Милашка Хани: слёзы / Cutey Honey: Tears [боевик, 2016] BDRip 720p, Mvo

salma3

135 | 35

3.86 ГБ

В этой теме нет новых непрочитанных сообщений. Милашка Хани: слёзы / Cutey Honey: Tears [боевик, 2016] HDRip, Mvo

salma3

185 | 94

1.37 ГБ

В этой теме нет новых непрочитанных сообщений. Слезы счастья / Happy Tears [драма, комедия, 2009] HDRip, Avo

salma3

73 | 42

1.37 ГБ

В этой теме нет новых непрочитанных сообщений. Загнанный / The Hunted [Боевик, триллер, драма, 2003] BDRip 720p, Dub+Sub

salma3

38 | 11

5.36 ГБ

В этой теме нет новых непрочитанных сообщений. Снайпер / Sniper [боевик, триллер, драма, военный, 1992] BDRip 720p, MVo+Dvo+Avo+SUB

salma3

61 | 68

8.7 ГБ

В этой теме нет новых непрочитанных сообщений. Вызов / Defiance [боевик, триллер, драма, военный, история, 2008] BDRip 720p , Dvo

salma3

76 | 46

11.99 ГБ

В этой теме нет новых непрочитанных сообщений. Союзники / Allied [боевик, триллер, драма, мелодрама, военный, 2016] BDRip 720p, Dub+Sub [Лицензия]

salma3

451 | 34

9.13 ГБ


Начать новую тему Ответить на тему  [ 1 сообщение ] 




Для Мосгорсуда, Роскомнадзора и рекламодателей:: mosgorsud-torrent[собачка]yandex.ru