Торрент файл
скачать торрент магнет ссылка Добавлен: 04 июн 2016, 20:40
Размер: 11.64 ГБ
Сидеров: 168
Личеров: 46
Автор

СообщениеДобавлено: 04 июн 2016, 20:40 

В сети
Супермодератор
Аватара пользователя
Дата регистрации:
15 фев 2012, 16:44
Возраст: 29
Спасибо: 7377 / 2147
Сообщения: 75818
Год выпуска: 1994
Жанр: Фэнтези, боевик, триллер
Режиссер: Расселл Малкэй

В ролях: Алек Болдуин, Джон Лоун, Пенелопа Энн Миллер, Питер Бойл, Иэн МакКеллен, Тим Карри, Джонатан Уинтерс, Саб Симоно, Андре Грегори, Брэди Цурутани, Джеймс Хонг, Арсенио Тринидад, Джозеф Маэр, Джон Капелос, Макс Райт, Аарон Лустиг, Синоа Лорен, Рудольф Уиллрич, Верлон Эдвардс, Уэсли Манн

О фильме: После пребывания в буддийском монастыре, бывший беспощадный правитель огромной наркоимперии, а ныне добропорядочный гражданин, скрыв лицо под маской, борется со злом в самом страшном городе мира — Нью-Йорке. Но вот у него появляется соперник не менее могущественный чем он сам — потомок Чингисхана, стремящийся подчинить себе весь мир…



Выпущено: США, Bregman, Baer Productions, Universal Pictures
Продолжительность: 01:47:31
Перевод: Профессиональный многоголосый, авторский
Субтитры: Русские, английские

Файл
Качество: BDRip (1080p)
Видео: MPEG-4 AVC, 13.3 Мбит/с, 1920x1080
Аудио #1: Русский (AC3, 6 ch, 448 Кбит/с) - MVO Амальгама
Аудио #2: Русский (AC3, 6 ch, 384 Кбит/с) - MVO Твистер
Аудио #3: Русский (AC3, 6 ch, 448 Кбит/с) - AVO Живов
Аудио #4: Русский (AC3, 6 ch, 448 Кбит/с) - AVO Дохалов
Аудио #5: Английский (AC3, 6 ch, 448 Кбит/с)
Формат : Matroska
Версия формата : Version 2
Размер файла : 11,6 Гбайт
Продолжительность : 1 ч. 47 м.
Общий поток : 15,5 Мбит/сек
Название фильма : ~V ad~
Дата кодирования : UTC 2016-06-02 22:35:52
Программа кодирования : mkvmerge v6.5.0 ('Isn't she lovely') built on Oct 20 2013 12:50:05
Библиотека кодирования : libebml v1.3.0 + libmatroska v1.4.1
Attachements : cover.jpg
Видео
Идентификатор : 1
Формат : AVC
Формат/Информация : Advanced Video Codec
Профиль формата : High@L4.1
Параметр CABAC формата : Да
Параметр ReFrames формата : 4 кадра
Идентификатор кодека : V_MPEG4/ISO/AVC
Продолжительность : 1 ч. 47 м.
Битрейт : 13,3 Мбит/сек
Ширина : 1920 пикселей
Высота : 1080 пикселей
Соотношение сторон : 16:9
Режим частоты кадров : Постоянный
Частота кадров : 23,976 кадра/сек
Цветовое пространство : YUV
Субдискретизация насыщенности : 4:2:0
Битовая глубина : 8 бит
Тип развёртки : Прогрессивная
Бит/(Пиксели*Кадры) : 0.268
Размер потока : 9,78 Гбайт (84%)
Заголовок : ~V~
Библиотека кодирования : x264 core 148 r2694 3b70645
Настройки программы : cabac=1 / ref=4 / deblock=1:-2:-2 / analyse=0x3:0x133 / me=umh / subme=11 / psy=1 / psy_rd=1.00:0.00 / mixed_ref=1 / me_range=32 / chroma_me=1 / trellis=2 / 8x8dct=1 / cqm=0 / deadzone=21,11 / fast_pskip=0 / chroma_qp_offset=-2 / threads=12 / lookahead_threads=1 / sliced_threads=0 / nr=0 / decimate=0 / interlaced=0 / bluray_compat=0 / constrained_intra=0 / bframes=10 / b_pyramid=2 / b_adapt=2 / b_bias=0 / direct=3 / weightb=1 / open_gop=0 / weightp=2 / keyint=240 / keyint_min=23 / scenecut=40 / intra_refresh=0 / rc=2pass / mbtree=0 / bitrate=13333 / ratetol=1.0 / qcomp=0.60 / qpmin=0 / qpmax=69 / qpstep=4 / cplxblur=20.0 / qblur=0.5 / ip_ratio=1.40 / pb_ratio=1.30 / aq=3:0.90
Язык : English
Default : Да
Forced : Нет
Аудио #1
Идентификатор : 2
Формат : AC-3
Формат/Информация : Audio Coding 3
Расширение режима : CM (complete main)
Параметр Endianness формата : Big
Идентификатор кодека : A_AC3
Продолжительность : 1 ч. 47 м.
Вид битрейта : Постоянный
Битрейт : 448 Кбит/сек
Каналы : 6 каналов
Расположение каналов : Front: L C R, Side: L R, LFE
Частота : 48,0 КГц
Метод сжатия : С потерями
Задержка видео : 584 мс.
Размер потока : 345 Мбайт (3%)
Заголовок : MVO[Амальгама]
Язык : Russian
Default : Нет
Forced : Нет
Аудио #2
Идентификатор : 3
Формат : AC-3
Формат/Информация : Audio Coding 3
Расширение режима : CM (complete main)
Параметр Endianness формата : Big
Идентификатор кодека : A_AC3
Продолжительность : 1 ч. 47 м.
Вид битрейта : Постоянный
Битрейт : 384 Кбит/сек
Каналы : 6 каналов
Расположение каналов : Front: L C R, Side: L R, LFE
Частота : 48,0 КГц
Метод сжатия : С потерями
Задержка видео : 584 мс.
Размер потока : 295 Мбайт (2%)
Заголовок : MVO[Твистер]
Язык : Russian
Default : Да
Forced : Да
Аудио #3
Идентификатор : 4
Формат : AC-3
Формат/Информация : Audio Coding 3
Расширение режима : CM (complete main)
Параметр Endianness формата : Big
Идентификатор кодека : A_AC3
Продолжительность : 1 ч. 47 м.
Вид битрейта : Постоянный
Битрейт : 448 Кбит/сек
Каналы : 6 каналов
Расположение каналов : Front: L C R, Side: L R, LFE
Частота : 48,0 КГц
Метод сжатия : С потерями
Задержка видео : 584 мс.
Размер потока : 345 Мбайт (3%)
Заголовок : AVO [Живов]
Язык : Russian
Default : Нет
Forced : Нет
Аудио #4
Идентификатор : 5
Формат : AC-3
Формат/Информация : Audio Coding 3
Расширение режима : CM (complete main)
Параметр Endianness формата : Big
Идентификатор кодека : A_AC3
Продолжительность : 1 ч. 47 м.
Вид битрейта : Постоянный
Битрейт : 448 Кбит/сек
Каналы : 6 каналов
Расположение каналов : Front: L C R, Side: L R, LFE
Частота : 48,0 КГц
Метод сжатия : С потерями
Задержка видео : 584 мс.
Размер потока : 345 Мбайт (3%)
Заголовок : AVO [Дохалов]
Язык : Russian
Default : Нет
Forced : Нет
Аудио #5
Идентификатор : 6
Формат : AC-3
Формат/Информация : Audio Coding 3
Расширение режима : CM (complete main)
Параметр Endianness формата : Big
Идентификатор кодека : A_AC3
Продолжительность : 1 ч. 47 м.
Вид битрейта : Постоянный
Битрейт : 448 Кбит/сек
Каналы : 6 каналов
Расположение каналов : Front: L C R, Side: L R, LFE
Частота : 48,0 КГц
Метод сжатия : С потерями
Размер потока : 345 Мбайт (3%)
Заголовок : Original
Язык : English
Default : Нет
Forced : Нет
Текст #1
Идентификатор : 7
Формат : UTF-8
Идентификатор кодека : S_TEXT/UTF8
Идентификатор кодека/Информация : UTF-8 Plain Text
Заголовок : Полные
Язык : Russian
Default : Нет
Forced : Нет
Текст #2
Идентификатор : 8
Формат : UTF-8
Идентификатор кодека : S_TEXT/UTF8
Идентификатор кодека/Информация : UTF-8 Plain Text
Заголовок : SDH
Язык : English
Default : Нет
Forced : Нет
Меню
00:00:00.000 : :Main Titles: The Butcher of Lhasa
00:08:21.959 : :The Weed of Crime
00:16:01.627 : :The Cobalt Club
00:22:49.868 : :The Coming of the Connection
00:28:55.984 : :The Bronzium Connection
00:33:52.697 : :The Call of Shiwan Khan
00:42:33.717 : :An Assault on the War Department
00:46:27.326 : :To Kill a Shadow
00:51:38.053 : :That Knife...
00:55:52.682 : :The Evil Within
01:00:34.213 : :The Shadow Submerged
01:09:25.786 : :The Shadow Strikes
01:13:57.182 : risoner of the Phurba?
01:20:12.098 : :The Orb of Oblivian
01:31:10.798 : :Mirrors of the Mind
01:41:10.856 : :End Titles ("Original Sin")
x264 [info]: frame I:1005 Avg QP:17.21 size:181011
x264 [info]: frame P:30146 Avg QP:19.37 size:105881
x264 [info]: frame B:123505 Avg QP:21.44 size: 59699





Релиз от:


_________________
Проголосуй за трекер Открытый торрент трекер - RUS-MEDIA.ORG

Проголосуй Открытый торрент трекер - RUS-MEDIA.ORG


Вернуться к началу
 Профиль Отправить личное сообщение  
 
   Похожие торренты   Автор   Торрент   Размер 
В этой теме нет новых непрочитанных сообщений. Тень / The Shadow [Фэнтези, боевик, триллер, 1994] BDRemux 1080p, Mvo

salma3

0 | 0

18.27 ГБ

В этой теме нет новых непрочитанных сообщений. Тень / The Shadow Effect [Боевик, триллер, 2017] BDRip 1080p, Mvo

salma3

0 | 0

7.44 ГБ

В этой теме нет новых непрочитанных сообщений. Тень / The Shadow Effect [боевик, триллер, 2017] WEB-DLRip, Mvo

salma3

1647 | 567

1.37 ГБ

В этой теме нет новых непрочитанных сообщений. Тень внутри / The Shadow Within [ужасы, триллер, 2007] DVDRip, Avo

salma3

75 | 44

1.46 ГБ

В этой теме нет новых непрочитанных сообщений. Тень «Полярной звезды» / The Shadow in the North [триллер, драма, криминал, 2007] DVDRip-AVC, Mvo

salma3

109 | 21

1.97 ГБ

В этой теме нет новых непрочитанных сообщений. Медальон / The Medallion [боевик, триллер, фэнтези, комедия, 2003] BDRip 1080р, Dub

salma3

0 | 0

6.45 ГБ

В этой теме нет новых непрочитанных сообщений. Гонщики / Roadracers [Боевик, драма, 1994] BDRip 1080р, Dvo

salma3

0 | 1

9.94 ГБ


Начать новую тему Ответить на тему  [ 1 сообщение ] 




Для Мосгорсуда, Роскомнадзора и рекламодателей:: mosgorsud-torrent[собачка]yandex.ru
cron
cron