Торрент файл
скачать торрент магнет ссылка Добавлен: 04 июн 2016, 14:39
Размер: 11.29 ГБ
Сидеров: 7
Личеров: 5
Автор

СообщениеДобавлено: 04 июн 2016, 14:39 

Не в сети
Супермодератор
Аватара пользователя
Дата регистрации:
15 фев 2012, 16:44
Возраст: 28
Спасибо: 7223 / 2147
Сообщения: 67788
Правила боя / Rules of Engagement

Перевод: Профессиональный (полное дублирование)
Субтитры: русские, английские
Формат: BDRip, MKV, H.264, AC3/DTS
Страна: Великобритания, Германия, Канада, США
Режиссер: Уильям Фридкин
Жанр: боевик, драма, военный
Продолжительность: 02:07:19
Год выпуска: 2000

В ролях: Томми Ли Джонс, Самюэль Л. Джексон, Гай Пирс, Бен Кингсли, Брюс Гринвуд, Энн Арчер, Филип Бейкер Холл, Блэр Андервуд, Дейл Дай, Амиду

Описание: Полковник морской пехоты Терри Чайлдерс отправляется на опасное спецзадание в одно из ближневосточных государств, где у стен американского посольства проводят демонстрацию разъяренные исламисты. Когда разбушевавшаяся толпа начинает штурм здания, он по всем правилам боя открывает по ней огонь, ради спасения жизней посла США и его семьи. Отчаянный патриот, участник самых рискованных военных кампаний, теперь обвиняется в убийстве гражданских лиц другого государства.
Быстро забыв о заслугах героя, правительство решает замять надвигающийся международный скандал, путем организации шумного процесса, на котором предполагается обвинить во всех смертных грехах заслуженного полковника-ветерана. Но на суде, который с легкостью рассчитывали выиграть грязные, продажные политики, на защиту своего боевого товарища со времен войны во Вьетнаме встает его испытанный друг, военный адвокат Хейс Ходжс. Благодаря его независимому расследованию открывается шокирующая правда о событиях, произошедших на самом деле на территории посольства и имевших место после этого....


Рейтинг на Кинопоиск.RU: 7.027
Рейтинг на MPAA: R
Рейтинг на IMDB: 6.4/10

Видео: 1920x726p (2.645:1), 24 fps, MPEG-4 AVC (x264), ~10.7 Mbps avg, 0.321 bit/pixel
Аудио#1: Русский 48 kHz, AC3, 6 ch ~ 448 Kbps [Профессиональный (полное дублирование)]
Аудио#2: Английский 48 kHz, DTS, 6 ch ~ 1509 Kbps [Оригинал]


Общее
Уникальный идентификатор : 207804680326690276124799180963283153837 (0x9C55B9C3B4F1C300984640D08EAF33AD)
Полное имя : F:\TREKER\ТЕМР\rules_of_engagement_[tfile.ru].mkv
Формат : Matroska
Версия формата : Version 2
Размер файла : 11,3 Гбайт
Продолжительность : 2 ч. 7 м.
Общий поток : 12,7 Мбит/сек
Название фильма : rules_of_engagement_[tfile.ru]
Дата кодирования : UTC 2016-05-24 08:03:02
Программа кодирования : mkvmerge v4.0.0 ('The Stars were mine') сборка от Jun 6 2010 16:18:42
Библиотека кодирования : libebml v1.0.0 + libmatroska v1.0.0
Обложка : Yes
Attachments : cover.jpg

Видео
Идентификатор : 1
Формат : AVC
Формат/Информация : Advanced Video Codec
Профиль формата :
Параметр CABAC формата : Да
Параметр ReFrames формата : 5 кадров
Идентификатор кодека : V_MPEG4/ISO/AVC
Продолжительность : 2 ч. 7 м.
Битрейт : 10,7 Мбит/сек
Ширина : 1920 пикселей
Высота : 726 пикселей
Соотношение сторон : 2,645
Режим частоты кадров : Постоянный
Частота кадров : 24,000 кадра/сек
Цветовое пространство : YUV
Субдискретизация насыщенности : 4:2:0
Битовая глубина : 8 бит
Тип развёртки : Прогрессивная
Бит/(Пиксели*Кадры) : 0.321
Размер потока : 9,32 Гбайт (83%)
Заголовок : rules_of_engagement_[tfile.ru]
Библиотека кодирования : x264 core 107 r1745 4785e8e
Настройки программы : cabac=1 / ref=5 / deblock=1:-3:-3 / analyse=0x3:0x113 / me=umh / subme=10 / psy=1 / psy_rd=1.05:0.10 / mixed_ref=1 / me_range=64 / chroma_me=1 / trellis=2 / 8x8dct=1 / cqm=2 / deadzone=21,11 / fast_pskip=0 / chroma_qp_offset=-2 / threads=12 / sliced_threads=0 / nr=0 / decimate=1 / interlaced=0 / constrained_intra=0 / bframes=6 / b_pyramid=2 / b_adapt=2 / b_bias=0 / direct=3 / weightb=1 / open_gop=0 / weightp=2 / keyint=250 / keyint_min=24 / scenecut=40 / intra_refresh=0 / rc_lookahead=60 / rc=2pass / mbtree=1 / bitrate=10732 / ratetol=1.0 / qcomp=0.70 / qpmin=10 / qpmax=51 / qpstep=4 / cplxblur=20.0 / qblur=0.5 / vbv_maxrate=50000 / vbv_bufsize=50000 / ip_ratio=1.40 / aq=1:1.00 / nal_hrd=none
Язык : English
Default : Нет
Forced : Нет

Аудио #1
Идентификатор : 2
Формат : AC-3
Формат/Информация : Audio Coding 3
Расширение режима : CM (complete main)
Параметр Endianness формата : Big
Идентификатор кодека : A_AC3
Продолжительность : 2 ч. 7 м.
Вид битрейта : Постоянный
Битрейт : 448 Кбит/сек
Каналы : 6 каналов
Расположение каналов : Front: L C R, Side: L R, LFE
Частота : 48,0 КГц
Частота кадров : 31,250 кадров/сек (1536 spf)
Метод сжатия : С потерями
Размер потока : 408 Мбайт (4%)
Заголовок : Профессиональный (полное дублирование)
Язык : Russian
Default : Нет
Forced : Нет

Аудио #2
Идентификатор : 3
Формат : DTS
Формат/Информация : Digital Theater Systems
Режим : 16
Параметр Endianness формата : Big
Идентификатор кодека : A_DTS
Продолжительность : 2 ч. 7 м.
Вид битрейта : Постоянный
Битрейт : 1509 Кбит/сек
Каналы : 6 каналов
Расположение каналов : Front: L C R, Side: L R, LFE
Частота : 48,0 КГц
Частота кадров : 93,750 кадра/сек (512 spf)
Битовая глубина : 24 бит
Метод сжатия : С потерями
Задержка видео : 11 мс.
Размер потока : 1,34 Гбайт (12%)
Заголовок : Оригинал
Язык : English
Default : Нет
Forced : Нет

Текст #1
Идентификатор : 4
Формат : UTF-8
Идентификатор кодека : S_TEXT/UTF8
Идентификатор кодека/Информация : UTF-8 Plain Text
Язык : Russian
Default : Нет
Forced : Нет

Текст #2
Идентификатор : 5
Формат : UTF-8
Идентификатор кодека : S_TEXT/UTF8
Идентификатор кодека/Информация : UTF-8 Plain Text
Язык : English
Default : Нет
Forced : Нет

Меню
00:00:00.000 : en:Battle of Ca Lu
00:09:21.833 : en:Distinguished Service
00:14:27.208 : en:Embassy Siege
00:23:16.292 : en:International Crisis
00:31:01.542 : en:General Court-Martial
00:40:02.333 : en:Weak Lawyer
00:49:24.708 : en:Making a Case
00:56:47.000 : en:Yemen Investigation
01:02:45.458 : en:Career at Risk
01:11:50.167 : en:Opening Arguments
01:21:39.208 : en:Doctor Ahmar
01:27:59.125 : en:Withholding Evidence
01:37:41.750 : en:Childers' Testimony
01:45:06.500 : en:Summation
01:54:21.417 : en:Verdict
02:00:22.708 : en:Ednd Credits









_________________
Проголосуй за трекер Открытый торрент трекер - RUS-MEDIA.ORG

Проголосуй Открытый торрент трекер - RUS-MEDIA.ORG


Вернуться к началу
 Профиль Отправить личное сообщение  
 
   Похожие торренты   Автор   Торрент   Размер 
В этой теме нет новых непрочитанных сообщений. Правила боя / Rules of Engagement [боевик, триллер, драма, военный, 2000] BDRip 1080p, Dub+Sub

salma3

7 | 1

10.54 ГБ

В этой теме нет новых непрочитанных сообщений. Правила виноделов / The Cider House Rules [Мелодрама, драма, экранизация, 1999] BDRemux 1080p, Dub

salma3

9 | 12

20.6 ГБ

В этой теме нет новых непрочитанных сообщений. Патриот / The Patriot (Роланд Эммерих / Roland Emmerich) [2000 г., Боевик, драма, военный, BDRip 1080p]

marya111

0 | 0

14.31 ГБ

В этой теме нет новых непрочитанных сообщений. Ю-571 / U-571 [Боевик, драма, военный, 2000] BDRip 720p, Dub [Open Matte]

salma3

0 | 0

9.77 ГБ

В этой теме нет новых непрочитанных сообщений. Патриот / The Patriot [Боевик, драма, военный, 2000] BDRip 720p, Dub [Расширенная версия]

salma3

7 | 4

10.07 ГБ

В этой теме нет новых непрочитанных сообщений. Патриот / The Patriot [боевик, драма, военный, история, 2000] BDRip, Dub [Театральная версия]

salma3

37 | 21

2.91 ГБ

В этой теме нет новых непрочитанных сообщений. Дракула 2000 / Dracula 2000 [ужасы, фэнтези, боевик, триллер, 2000] BDRip 1080p, Dub+Sub

salma3

54 | 14

9.81 ГБ


Начать новую тему Ответить на тему  [ 1 сообщение ] 




Для Мосгорсуда, Роскомнадзора и рекламодателей:: mosgorsud-torrent[собачка]yandex.ru
cron