Торрент файл
скачать торрент магнет ссылка Добавлен: 20 авг 2016, 21:35
Размер: 4.75 ГБ
Сидеров: 254
Личеров: 28
Автор

СообщениеДобавлено: 04 июн 2016, 14:36 

Не в сети
Супермодератор
Аватара пользователя
Дата регистрации:
15 фев 2012, 16:44
Возраст: 28
Спасибо: 6672 / 2146
Сообщения: 46169
Перевод: Профессиональный (полное дублирование) [лицензия]
Субтитры: Отсутствуют
Формат: BDRip, MKV, H.264, AC3/DTS
Страна: США, Великобритания, Болгария
Режиссер: Бабак Наджафи
Жанр: боевик, триллер, драма, криминал
Продолжительность: 01:38:24
Год выпуска: 2016

В ролях: Джерард Батлер, Аарон Экхарт, Морган Фриман, Алон Абутбул, Валид Зуэйтер, Адель Беншериф, Мехди Дехби, Шивани Гаи, Мартин Петрушев, Оуэн Дэвис

Описание: Действие фильма начинается в Лондоне, где премьер-министр Великобритании погибает при загадочных обстоятельствах. На похоронах безусловно присутствуют руководители западного мира. Но то, что начиналось как наиболее безопасное событие на земле, превращается в опаснейшее покушение на самых мощных мировых лидеров, что в свою очередь ставит под угрозу будущее всего мира. Только три человека сохраняют надежду на предотвращение катастрофы: президент США, его верный помощник - агент спецслужбы и английский агент МИ-6, который никому не доверяет.

Рейтинг на IMDB: 6.1/10
Рейтинг на Кинопоиск.RU: 5.900
Рейтинг MPAA: R

Видео:1280x536p (2.40:1), 23.976 fps, AVC MPEG-4 (H.264), High@L4.1 ~4743 kbps, 0.288 bit/pixel
Аудио #1: Русский: 48 kHz, AC3 Dolby Digital, 6 ch, ~640 kbps [Профессиональный (полное дублирование)]
Аудио #2: Английский: 48 kHz, DTS, 6 ch, ~1509 kbps [Оригинал]



General
Unique ID : 247365294390118380674475333266564462824 (0xBA18D2A0D87A2479847C02D4B84838E8)
Complete name : G:VideoLondon.Has.Fallen.2016.D.BDRip.720p.ExKinoRay.mkv
Format : Matroska
Format version : Version 4 / Version 2
File size : 4.75 GiB
Duration : 1 h 38 min
Overall bit rate : 6 894 kb/s
Movie name : London.Has.Fallen.2016.D.BDRip.720p.ExKinoRay
Encoded date : UTC 2016-08-18 22:41:20
Writing application : mkvmerge v8.3.0 ('Over the Horizon') 64bit
Writing library : libebml v1.3.1 + libmatroska v1.4.2

Video
ID : 1
Format : AVC
Format/Info : Advanced Video Codec
Format profile : High@L4.1
Format settings, CABAC : Yes
Format settings, ReFrames : 12 frames
Codec ID : V_MPEG4/ISO/AVC
Duration : 1 h 38 min
Bit rate : 4 743 kb/s
Width : 1 280 pixels
Height : 536 pixels
Display aspect ratio : 2.40:1
Frame rate mode : Constant
Frame rate : 23.976 (24000/1001) FPS
Color space : YUV
Chroma subsampling : 4:2:0
Bit depth : 8 bits
Scan type : Progressive
Bits/(Pixel*Frame) : 0.288
Stream size : 3.27 GiB (69%)
Writing library : x264 core 148 r2692+2+42 c1a827b Yuuki [8-bit@4:2:0 X86_64][GCC 5.3.0]
Encoding settings : cabac=1 / ref=12 / deblock=1:-3:-3 / analyse=0x3:0x113 / me=umh / subme=11 / psy=1 / fade_compensate=0.00 / psy_rd=1.00:0.05 / mixed_ref=1 / me_range=32 / chroma_me=1 / trellis=2 / 8x8dct=1 / cqm=0 / deadzone=21,11 / fast_pskip=0 / chroma_qp_offset=-2 / threads=17 / lookahead_threads=2 / sliced_threads=0 / nr=0 / decimate=1 / interlaced=0 / bluray_compat=0 / constrained_intra=0 / fgo=0 / bframes=8 / b_pyramid=2 / b_adapt=2 / b_bias=0 / direct=3 / weightb=1 / open_gop=0 / weightp=2 / keyint=250 / keyint_min=23 / scenecut=40 / intra_refresh=0 / rc=crf / mbtree=0 / crf=15.7000 / qcomp=0.60 / qpmin=0:0:0 / qpmax=69:69:69 / qpstep=4 / ip_ratio=1.40 / pb_ratio=1.30 / aq=3:0.60
Language : English
Default : Yes
Forced : No

Audio #1
ID : 2
Format : AC-3
Format/Info : Audio Coding 3
Mode extension : CM (complete main)
Format settings, Endianness : Big
Codec ID : A_AC3
Duration : 1 h 38 min
Bit rate mode : Constant
Bit rate : 640 kb/s
Channel(s) : 6 channels
Channel positions : Front: L C R, Side: L R, LFE
Sampling rate : 48.0 kHz
Frame rate : 31.250 FPS (1536 spf)
Compression mode : Lossy
Delay relative to video : 1 s 0 ms
Stream size : 451 MiB (9%)
Title : DUB [RUS Transfer]
Language : Russian
Default : Yes
Forced : No

Audio #2
ID : 3
Format : DTS
Format/Info : Digital Theater Systems
Mode : 16
Format settings, Endianness : Big
Codec ID : A_DTS
Duration : 1 h 38 min
Bit rate mode : Constant
Bit rate : 1 509 kb/s
Channel(s) : 6 channels
Channel positions : Front: L C R, Side: L R, LFE
Sampling rate : 48.0 kHz
Frame rate : 93.750 FPS (512 spf)
Bit depth : 24 bits
Compression mode : Lossy
Stream size : 1.04 GiB (22%)
Title : Original
Language : English
Default : No
Forced : No

Text #1
ID : 4
Format : UTF-8
Codec ID : S_TEXT/UTF8
Codec ID/Info : UTF-8 Plain Text
Duration : 1 h 31 min
Bit rate : 45 b/s
Count of elements : 1032
Stream size : 30.7 KiB (0%)
Title : Full
Language : English
Default : No
Forced : No

Text #2
ID : 5
Format : UTF-8
Codec ID : S_TEXT/UTF8
Codec ID/Info : UTF-8 Plain Text
Duration : 1 h 31 min
Bit rate : 50 b/s
Count of elements : 1188
Stream size : 34.1 KiB (0%)
Title : SDH
Language : English
Default : No
Forced : No

Menu
00:00:00.000 : en:Chapter 01
00:05:23.281 : en:Chapter 02
00:10:12.987 : en:Chapter 03
00:15:53.202 : en:Chapter 04
00:20:13.546 : en:Chapter 05
00:23:41.462 : en:Chapter 06
00:28:51.229 : en:Chapter 07
00:33:30.383 : en:Chapter 08
00:39:37.208 : en:Chapter 09
00:45:05.286 : en:Chapter 10
00:49:43.105 : en:Chapter 11
00:53:26.954 : en:Chapter 12
00:58:40.392 : en:Chapter 13
01:02:42.467 : en:Chapter 14
01:08:22.598 : en:Chapter 15
01:12:51.075 : en:Chapter 16
01:17:35.401 : en:Chapter 17
01:20:58.270 : en:Chapter 18
01:26:11.500 : en:Chapter 19
01:31:42.247 : en:Chapter 20




_________________
Проголосуй за трекер Открытый торрент трекер - RUS-MEDIA.ORG

Проголосуй Открытый торрент трекер - RUS-MEDIA.ORG



реклама партнёра


Вернуться к началу
 Профиль Отправить личное сообщение  
 
   Похожие торренты   Автор   Торрент   Размер 
В этой теме нет новых непрочитанных сообщений. Падение Лондона / London Has Fallen [боевик, триллер, драма, криминал, 2016] Blu-ray 1080p, Dub [лицензия]

salma3

16 | 8

17.24 ГБ

В этой теме нет новых непрочитанных сообщений. Падение Лондона / London Has Fallen [боевик, триллер, драма, криминал, 2016] BDRip 1080p, Dub [iTunes]

salma3

58 | 6

12.09 ГБ

В этой теме нет новых непрочитанных сообщений. Падение Лондона / London Has Fallen [боевик, триллер, драма, криминал, 2016] Blu-ray 1080p, Dub

salma3

36 | 14

36.1 ГБ

В этой теме нет новых непрочитанных сообщений. Падение Лондона / London Has Fallen [боевик, триллер, драма, криминал, 2016] BD Remux 1080p, Dub [iTunes]

salma3

17 | 9

28.15 ГБ

В этой теме нет новых непрочитанных сообщений. Падение Лондона / London Has Fallen [боевик, триллер, криминал, 2016] WEB-DLRip, Dub [iTunes]

salma3

1219 | 287

1.37 ГБ

В этой теме нет новых непрочитанных сообщений. Мёртвые глаза Лондона / Die toten Augen von London [ужасы, триллер, криминал, детектив, 1961] DVDRip, Mvo

salma3

24 | 8

1.46 ГБ

В этой теме нет новых непрочитанных сообщений. Расплата / The Accountant [боевик, триллер, драма, криминал, 2016] BDRip 720p, Dub [Лицензия]

salma3

135 | 38

7.22 ГБ


СообщениеДобавлено: 20 авг 2016, 21:36 

Не в сети
Супермодератор
Аватара пользователя
Дата регистрации:
15 фев 2012, 16:44
Возраст: 28
Спасибо: 6672 / 2146
Сообщения: 46169
salma3 писал(а):
Re: Падение Лондона / London Has Fallen [боевик, триллер, драма, криминал, 2016] BDRip 720p, Dub [лицензия]

_________________
Проголосуй за трекер Открытый торрент трекер - RUS-MEDIA.ORG

Проголосуй Открытый торрент трекер - RUS-MEDIA.ORG


Вернуться к началу
 Профиль Отправить личное сообщение  
 
Начать новую тему Ответить на тему  [ Сообщений: 2 ] 




Для Мосгорсуда, Роскомнадзора и рекламодателей:: mosgorsud-torrent[собачка]yandex.ru