Торрент файл
скачать торрент магнет ссылка Добавлен: 04 июн 2016, 14:35
Размер: 12.09 ГБ
Сидеров: 58
Личеров: 6
Автор

СообщениеДобавлено: 04 июн 2016, 14:35 

Не в сети
Супермодератор
Аватара пользователя
Дата регистрации:
15 фев 2012, 16:44
Возраст: 28
Спасибо: 6643 / 2146
Сообщения: 45801
Перевод: Профессиональный (полное дублирование)
Субтитры: отсутствуют
Формат: BDRip, MKV, H.264, AC3
Страна: США, Великобритания, Болгария
Режиссер: Бабак Наджафи
Жанр: боевик, триллер, драма, криминал
Продолжительность: 01:38:42
Год выпуска: 2016

В ролях: Джерард Батлер, Аарон Экхарт, Морган Фриман, Алон Абутбул, Валид Зуэйтер, Адель Беншериф, Мехди Дехби, Шивани Гаи, Мартин Петрушев, Оуэн Дэвис

Описание: Действие фильма начинается в Лондоне, где премьер-министр Великобритании погибает при загадочных обстоятельствах. На похоронах безусловно присутствуют руководители западного мира. Но то, что начиналось как наиболее безопасное событие на земле, превращается в опаснейшее покушение на самых мощных мировых лидеров, что в свою очередь ставит под угрозу будущее всего мира. Только три человека сохраняют надежду на предотвращение катастрофы: президент США, его верный помощник — агент спецслужбы и английский агент МИ-6, который никому не доверяет.

Рейтинг на IMDb: 6.0/10
Рейтинг MPAA: R
Рейтинг на КиноПоиск.Ru: 5.806

Видео: 1920x804p (2.40:1), 23.976 fps, AVC MPEG-4 (x264), ~16.2 Mbps avg, 0.437 bits/(pixel*frame)
Аудио#1: Русский: 48 kHz, AC3, 6 ch, ~384 kbps avg, [Профессиональный (полное дублирование)] (iTunes)
Аудио#2: Английский: 48 kHz, AC3, 6 ch, ~640 kbps avg. [Оригинал]

Слоган: «Приготовься к кровавому аду»


General
Unique ID : 209991080959127137763132745509862889844 (0x9DFACFA36B8B3648BAF4D2B48293D974)
Complete name : C:\London Has Fallen\london has fallen.mkv
Format : Matroska
Format version : Version 2
File size : 12.1 GiB
Duration : 1h 38mn
Overall bit rate : 17.5 Mbps
Movie name : London Has Fallen
Encoded date : UTC 2016-06-01 15:41:45
Writing application : mkvmerge v3.3.0 ('Language') built on Mar 24 2010 14:59:24
Writing library : libebml v0.8.0 + libmatroska v0.9.0

Video
ID : 1
Format : AVC
Format/Info : Advanced Video Codec
Format profile :
Format settings, CABAC : Yes
Format settings, ReFrames : 5 frames
Codec ID : V_MPEG4/ISO/AVC
Duration : 1h 38mn
Bit rate : 16.2 Mbps
Width : 1 920 pixels
Height : 804 pixels
Display aspect ratio : 2.40:1
Frame rate mode : Constant
Frame rate : 23.976 fps
Color space : YUV
Chroma subsampling : 4:2:0
Bit depth : 8 bits
Scan type : Progressive
Bits/(Pixel*Frame) : 0.437
Stream size : 11.1 GiB (92%)
Title : London Has Fallen (2016) - EPiC
Writing library : x264 core 142 r2431+42 c69a006 tMod [8-bit@all X86_64]
Encoding settings : cabac=1 / ref=5 / deblock=1:-3:-3 / analyse=0x3:0x133 / me=umh / subme=11 / psy=1 / fade_compensate=0.00 / psy_rd=0.90:0.00 / mixed_ref=1 / me_range=32 / chroma_me=1 / trellis=2 / 8x8dct=1 / cqm=0 / deadzone=21,11 / fast_pskip=0 / chroma_qp_offset=-2 / threads=60 / lookahead_threads=6 / sliced_threads=0 / nr=0 / decimate=0 / interlaced=0 / bluray_compat=0 / constrained_intra=0 / fgo=0 / bframes=8 / b_pyramid=2 / b_adapt=2 / b_bias=0 / direct=3 / weightb=1 / open_gop=0 / weightp=2 / keyint=240 / keyint_min=23 / scenecut=40 / intra_refresh=0 / rc_lookahead=60 / rc=crf / mbtree=0 / crf=15.2000 / qcomp=0.60 / qpmin=0:0:0 / qpmax=69:69:69 / qpstep=4 / vbv_maxrate=40000 / vbv_bufsize=30000 / crf_max=0.0 / nal_hrd=none / filler=0 / ip_ratio=1.40 / pb_ratio=1.30 / aq=1:0.90 / aq-sensitivity=10.00 / aq-factor=1.00:1.00:1.00 / aq2=0 / aq3=0
Default : Yes
Forced : No

Audio #1
ID : 2
Format : AC-3
Format/Info : Audio Coding 3
Mode extension : CM (complete main)
Format settings, Endianness : Big
Codec ID : A_AC3
Duration : 1h 38mn
Bit rate mode : Constant
Bit rate : 384 Kbps
Channel(s) : 6 channels
Channel positions : Front: L C R, Side: L R, LFE
Sampling rate : 48.0 KHz
Bit depth : 16 bits
Compression mode : Lossy
Stream size : 271 MiB (2%)
Title : Dubbing (iTunes)
Language : Russian
Default : Yes
Forced : No

Audio #2
ID : 3
Format : AC-3
Format/Info : Audio Coding 3
Mode extension : CM (complete main)
Format settings, Endianness : Big
Codec ID : A_AC3
Duration : 1h 38mn
Bit rate mode : Constant
Bit rate : 640 Kbps
Channel(s) : 6 channels
Channel positions : Front: L C R, Side: L R, LFE
Sampling rate : 48.0 KHz
Bit depth : 16 bits
Compression mode : Lossy
Stream size : 452 MiB (4%)
Title : Original
Language : English
Default : No
Forced : No

Menu
00:00:00.000 : en:00:00:00.000
00:05:23.281 : en:00:05:23.281
00:10:12.987 : en:00:10:12.987
00:15:53.202 : en:00:15:53.202
00:20:13.546 : en:00:20:13.546
00:23:41.462 : en:00:23:41.462
00:28:51.229 : en:00:28:51.229
00:33:30.383 : en:00:33:30.383
00:39:37.208 : en:00:39:37.208
00:45:05.286 : en:00:45:05.286
00:49:43.105 : en:00:49:43.105
00:53:26.954 : en:00:53:26.954
00:58:40.392 : en:00:58:40.392
01:02:42.467 : en:01:02:42.467
01:08:22.598 : en:01:08:22.598
01:12:51.075 : en:01:12:51.075
01:17:35.401 : en:01:17:35.401
01:20:58.270 : en:01:20:58.270
01:26:11.500 : en:01:26:11.500
01:31:42.247 : en:01:31:42.247









_________________
Проголосуй за трекер Открытый торрент трекер - RUS-MEDIA.ORG

Проголосуй Открытый торрент трекер - RUS-MEDIA.ORG



реклама партнёра


Вернуться к началу
 Профиль Отправить личное сообщение  
 
   Похожие торренты   Автор   Торрент   Размер 
В этой теме нет новых непрочитанных сообщений. Падение Лондона / London Has Fallen [боевик, триллер, драма, криминал, 2016] BD Remux 1080p, Dub [iTunes]

salma3

17 | 9

28.15 ГБ

В этой теме нет новых непрочитанных сообщений. Падение Лондона / London Has Fallen [боевик, триллер, драма, криминал, 2016] Blu-ray 1080p, Dub

salma3

36 | 14

36.1 ГБ

В этой теме нет новых непрочитанных сообщений. Падение Лондона / London Has Fallen [боевик, триллер, криминал, 2016] WEB-DLRip, Dub [iTunes]

salma3

1219 | 287

1.37 ГБ

В этой теме нет новых непрочитанных сообщений. Падение Лондона / London Has Fallen [боевик, триллер, драма, криминал, 2016] Blu-ray 1080p, Dub [лицензия]

salma3

16 | 8

17.24 ГБ

В этой теме нет новых непрочитанных сообщений. Падение Лондона / London Has Fallen [боевик, триллер, драма, криминал, 2016] BDRip 720p, Dub [лицензия]

salma3

254 | 28

4.75 ГБ

В этой теме нет новых непрочитанных сообщений. Падение Олимпа / Olympus Has Fallen [Боевик, триллер, 2013] BDRemux 1080p, Dub

salma3

0 | 19

33.41 ГБ

В этой теме нет новых непрочитанных сообщений. Расплата / The Accountant (Боевик, Триллер, Драма, Криминал, 2016) BDRip 1080p | iTunes

marya111

663 | 216

14.06 ГБ


Начать новую тему Ответить на тему  [ 1 сообщение ] 




Для Мосгорсуда, Роскомнадзора и рекламодателей:: mosgorsud-torrent[собачка]yandex.ru