Торрент файл
скачать торрент магнет ссылка Добавлен: 31 май 2016, 23:28
Размер: 10.82 ГБ
Сидеров: 31
Личеров: 34
Автор

СообщениеДобавлено: 31 май 2016, 23:28 

В сети
Супермодератор
Аватара пользователя
Дата регистрации:
15 фев 2012, 16:44
Возраст: 28
Спасибо: 6644 / 2146
Сообщения: 45932
Год выхода: 1988
Страна: США
Студия: Lorimar Film Entertainment, Silver Pictures
Продолжительность: 01:35:59
Жанр: боевик, триллер, комедия, криминал
Режиссер: Крэйг Р. Бэксли

В ролях: Карл Уэзерс, Крэйг Т. Нельсон, Вэнити, Шэрон Стоун, Томас Ф. Уилсон, Билл Дьюк, Роберт Дави, Джек Тибо, Роджер Аарон Браун, Стэн Фостер, ...

Перевод:
- Профессиональный (дублированный) Варус Видео
- Профессиональный (многоголосный, закадровый) ВГТРК
- Авторский (одноголосый, закадровый) Михалёв Алексей Михайлович
О фильме: Сержант полиции Джексон, по прозвищу «Боевик», бросает вызов жестоким убийцам, состоящим на службе у безжалостного автомагната, который рассчитывает путем убийств расчистить себе дорогу к политической власти.
Преследуемый своими же коллегами-полицейскими по сфабрикованному обвинению, Джексон предпринимает отчаянную попытку разоблачения…



Кодек: x264
Качество: BDRip 1080p
Видео: 1908x1080, 14000 kbps, 23,976 fps
Аудио #1: AC-3, 2 ch, 192 kbps (Rus) - Dub Варус Видео
Аудио #2: AC-3, 2 ch, 192 kbps (Rus) - MVO ВГТРК
Аудио #3: AC-3, 2 ch, 256 kbps (Rus) - AVO Михалёв Алексей Михайлович
Аудио #4: DTS, 2 ch, 1509 kbps (Eng)
Субтитры: Английские
За исходник спасибо - pirs18
Михалёв переналожен.
Сравниваем с исходником:

x264 [info]: frame I:669 Avg QP:19.36 size:162235
x264 [info]: frame P:29608 Avg QP:21.31 size:109243
x264 [info]: frame B:107777 Avg QP:23.32 size: 62397
x264 [info]: consecutive B-frames: 1.9% 2.5% 4.1% 24.1% 12.0% 49.4% 2.9% 1.8% 0.4% 0.7% 0.1% 0.1% 0.1%
Общее
Уникальный идентификатор : 254306803143666588675452838714380100672 (0xBF51B56EE88C5A50836B5A6C3D57A440)
Полное имя : C:TorrentБоевик Джексон (Action Jackson) 1988 BDRip 1080p.mkv
Формат : Matroska
Версия формата : Version 2
Размер файла : 10,8 Гбайт
Продолжительность : 1 ч. 35 м.
Общий поток : 16,1 Мбит/сек
Дата кодирования : UTC 2016-05-26 08:37:07
Программа кодирования : mkvmerge v4.0.0 ('The Stars were mine') сборка от Jun 6 2010 16:18:42
Библиотека кодирования : libebml v1.0.0 + libmatroska v1.0.0
Видео
Идентификатор : 1
Формат : AVC
Формат/Информация : Advanced Video Codec
Профиль формата : High@L4.1
Параметр CABAC формата : Да
Параметр ReFrames формата : 4 кадра
Идентификатор кодека : V_MPEG4/ISO/AVC
Продолжительность : 1 ч. 35 м.
Битрейт : 14,0 Мбит/сек
Ширина : 1908 пикселей
Высота : 1080 пикселей
Соотношение сторон : 16:9
Режим частоты кадров : Постоянный
Частота кадров : 23,976 кадра/сек
Цветовое пространство : YUV
Субдискретизация насыщенности : 4:2:0
Битовая глубина : 8 бит
Тип развёртки : Прогрессивная
Бит/(Пиксели*Кадры) : 0.283
Размер потока : 9,16 Гбайт (85%)
Библиотека кодирования : x264 core 146 r2538 121396c
Настройки программы : cabac=1 / ref=4 / deblock=1:-3:-3 / analyse=0x3:0x133 / me=umh / subme=11 / psy=1 / psy_rd=1.10:0.16 / mixed_ref=1 / me_range=32 / chroma_me=1 / trellis=2 / 8x8dct=1 / cqm=0 / deadzone=21,11 / fast_pskip=0 / chroma_qp_offset=-3 / threads=12 / lookahead_threads=2 / sliced_threads=0 / nr=0 / decimate=0 / interlaced=0 / bluray_compat=0 / constrained_intra=0 / bframes=12 / b_pyramid=2 / b_adapt=2 / b_bias=0 / direct=3 / weightb=1 / open_gop=0 / weightp=2 / keyint=240 / keyint_min=23 / scenecut=40 / intra_refresh=0 / rc_lookahead=60 / rc=2pass / mbtree=0 / bitrate=14000 / ratetol=1.0 / qcomp=0.60 / qpmin=0 / qpmax=69 / qpstep=4 / cplxblur=20.0 / qblur=0.5 / vbv_maxrate=50000 / vbv_bufsize=62500 / nal_hrd=none / filler=0 / ip_ratio=1.40 / pb_ratio=1.30 / aq=1:0.90
Язык : English
Default : Нет
Forced : Нет
Аудио #1
Идентификатор : 2
Формат : AC-3
Формат/Информация : Audio Coding 3
Расширение режима : CM (complete main)
Параметр Endianness формата : Big
Идентификатор кодека : A_AC3
Продолжительность : 1 ч. 35 м.
Вид битрейта : Постоянный
Битрейт : 192 Кбит/сек
Каналы : 2 канала
Расположение каналов : Front: L R
Частота : 48,0 КГц
Метод сжатия : С потерями
Размер потока : 132 Мбайт (1%)
Заголовок : Dub Варус Видео
Язык : Russian
Default : Нет
Forced : Нет
Аудио #2
Идентификатор : 3
Формат : AC-3
Формат/Информация : Audio Coding 3
Профиль формата : Dolby Digital
Расширение режима : CM (complete main)
Параметр Endianness формата : Big
Идентификатор кодека : A_AC3
Продолжительность : 1 ч. 35 м.
Вид битрейта : Постоянный
Битрейт : 192 Кбит/сек
Каналы : 2 канала
Расположение каналов : Front: L R
Частота : 48,0 КГц
Метод сжатия : С потерями
Размер потока : 132 Мбайт (1%)
Заголовок : MVO ВГТРК
Язык : Russian
Default : Нет
Forced : Нет
Аудио #3
Идентификатор : 4
Формат : AC-3
Формат/Информация : Audio Coding 3
Расширение режима : CM (complete main)
Параметр Endianness формата : Big
Идентификатор кодека : A_AC3
Продолжительность : 1 ч. 35 м.
Вид битрейта : Постоянный
Битрейт : 256 Кбит/сек
Каналы : 2 канала
Расположение каналов : Front: L R
Частота : 48,0 КГц
Метод сжатия : С потерями
Размер потока : 176 Мбайт (2%)
Заголовок : AVO Михалёв Алексей Михайлович [1944—1994]
Язык : Russian
Default : Нет
Forced : Нет
Аудио #4
Идентификатор : 5
Формат : DTS
Формат/Информация : Digital Theater Systems
Режим : 16
Параметр Endianness формата : Big
Идентификатор кодека : A_DTS
Продолжительность : 1 ч. 35 м.
Вид битрейта : Постоянный
Битрейт : 1509 Кбит/сек
Каналы : 2 канала
Расположение каналов : Front: L R
Частота : 48,0 КГц
Битовая глубина : 24 бит
Метод сжатия : С потерями
Размер потока : 1,01 Гбайт (9%)
Язык : English
Default : Нет
Forced : Нет
Текст
Идентификатор : 6
Формат : UTF-8
Идентификатор кодека : S_TEXT/UTF8
Идентификатор кодека/Информация : UTF-8 Plain Text
Язык : English
Default : Нет
Forced : Нет



_________________
Проголосуй за трекер Открытый торрент трекер - RUS-MEDIA.ORG

Проголосуй Открытый торрент трекер - RUS-MEDIA.ORG



реклама партнёра


Вернуться к началу
 Профиль Отправить личное сообщение  
 
   Похожие торренты   Автор   Торрент   Размер 
В этой теме нет новых непрочитанных сообщений. Боевик Джексон / Action Jackson [Комедия, боевик, драма, мюзикл, 2014] WEB-DL 720p, Dvo+Sub

salma3

72 | 7

2.08 ГБ

В этой теме нет новых непрочитанных сообщений. Боевик Джексон / Action Jackson [мюзикл, боевик, драма, 2014] WEBDLRip, Dvo+Sub

salma3

14 | 4

1.46 ГБ

В этой теме нет новых непрочитанных сообщений. Грязный Гарри 5: Игра в смерть / The Dead Pool [боевик, триллер, криминал, 1988] BDRip 1080p, Dub

salma3

25 | 6

9.87 ГБ

В этой теме нет новых непрочитанных сообщений. Молодые стрелки / Young Guns [Боевик, Триллер, Вестерн, Криминал, 1988] Blu-ray 1080p, Dvo+Sub

salma3

1 | 1

21.58 ГБ

В этой теме нет новых непрочитанных сообщений. Смертельное влечение / Heathers [триллер, комедия, криминал, 1988] BDRip 1080p, Mvo

salma3

0 | 0

7.27 ГБ

В этой теме нет новых непрочитанных сообщений. Посланник смерти / Messenger of Death [боевик, триллер, криминал, 1988] BDRip 720p, Mvo

salma3

22 | 27

6.35 ГБ

В этой теме нет новых непрочитанных сообщений. Молодые стрелки / Young Guns [Боевик, Триллер, Вестерн, Криминал, 1988] BDRip 720p, Dvo+Avo

salma3

0 | 0

5.18 ГБ


Начать новую тему Ответить на тему  [ 1 сообщение ] 




Для Мосгорсуда, Роскомнадзора и рекламодателей:: mosgorsud-torrent[собачка]yandex.ru