Торрент файл
скачать торрент магнет ссылка Добавлен: 29 май 2016, 20:05
Размер: 6.1 ГБ
Сидеров: 59
Личеров: 26
Автор

СообщениеДобавлено: 29 май 2016, 20:05 

Не в сети
Супермодератор
Аватара пользователя
Дата регистрации:
15 фев 2012, 16:44
Возраст: 28
Спасибо: 7058 / 2147
Сообщения: 58792
Год выхода: 1996
Жанр: Триллер, драма, военный, биография
Режиссер: Нил Джордан

В ролях: Лиам Нисон, Эйдан Куинн, Стивен Ри, Алан Рикман, Джулия Робертс, Иэн Харт, Ричард Ингрэм, Джон Кенни,

О фильме:
История Майкла Коллинза, борца за независимость Ирландии начала XX века, с жизнью и смертью которого отождествляется триумф, ужас и трагедия этого периода гражданской войны. Картина отличается высочайшим качеством, истинной драматичностью и смотрится с огромным интересом. Добротно и мощно поставлены батальные сцены. Еще раз убеждаешься в том, что силой нельзя удерживать народы. В самом начале двадцатого века, Британия – была самой мощной и развитой державой, которая по своей площади, занимала треть владений земного шара. Но, несмотря на мощь и величие, проблемы у нее возникали только с Ирландией. Ведь ирландцы очень свободолюбивый народ, и на протяжении семи веков, борются за свою свободу.

Страна: США, Великобритания, Ирландия
Продолжительность: 02:12:36
Перевод: Дублированный, авторский (Кашкин)

Файл
Кодек: x264
Качество: BDRip 720p
Видео: MPEG-4 AVC, 4700 Кбит/с, 1280x720, 23.976 кадр/с
Аудио #1: AC3, 2 ch, 192 kbps | Дублированный
Аудио #2: AC3, 2 ch, 192 kbps | Aвторский (Кашкин)
Аудио #3: DTS, 6 ch, 1509 kbps |Английский
Общее
Уникальный идентификатор : 238495823397147339749480325339348937521 (0xB36C9FF22F1F0BD5995E6E3174F72B31)
Полное имя : Michael.Collins.BDRip.720p.mkv
Формат : Matroska
Версия формата : Version 4 / Version 2
Размер файла : 6,10 Гбайт
Продолжительность : 2 ч. 12 м.
Общий поток : 6587 Кбит/сек
Название фильма : Michael Collins
Режиссёр : Neil Jordan
Дата кодирования : UTC 2016-03-19 08:27:15
Программа кодирования : mkvmerge v7.7.0 ('Six Voices') 32bit built on Feb 28 2015 23:23:00
Библиотека кодирования : libebml v1.3.1 + libmatroska v1.4.2
Attachements : cover.jpg
Release : Koenig
DURATION : 02:12:36.950000000
NUMBER_OF_FRAMES : 745964
NUMBER_OF_BYTES : 1500879636
_STATISTICS_WRITING_APP : mkvmerge v7.7.0 ('Six Voices') 32bit built on Feb 28 2015 23:23:00
_STATISTICS_WRITING_DATE_UTC : 2016-03-19 08:27:15
_STATISTICS_TAGS : BPS DURATION NUMBER_OF_FRAMES NUMBER_OF_BYTES
Видео
Идентификатор : 1
Формат : AVC
Формат/Информация : Advanced Video Codec
Профиль формата : High@L4.1
Параметр CABAC формата : Да
Параметр ReFrames формата : 9 кадров
Идентификатор кодека : V_MPEG4/ISO/AVC
Продолжительность : 2 ч. 12 м.
Битрейт : 4699 Кбит/сек
Ширина : 1280 пикселей
Высота : 720 пикселей
Соотношение сторон : 16:9
Режим частоты кадров : Постоянный
Частота кадров : 23,976 кадра/сек
Цветовое пространство : YUV
Субдискретизация насыщенности : 4:2:0
Битовая глубина : 8 бит
Тип развёртки : Прогрессивная
Бит/(Пиксели*Кадры) : 0.213
Размер потока : 4,23 Гбайт (69%)
Библиотека кодирования : x264 core 146 r2538 121396c
Настройки программы : cabac=1 / ref=9 / deblock=1:-3:-3 / analyse=0x3:0x113 / me=umh / subme=10 / psy=1 / psy_rd=1.00:0.10 / mixed_ref=1 / me_range=32 / chroma_me=1 / trellis=2 / 8x8dct=1 / cqm=0 / deadzone=21,11 / fast_pskip=0 / chroma_qp_offset=-3 / threads=3 / lookahead_threads=1 / sliced_threads=0 / nr=0 / decimate=1 / interlaced=0 / bluray_compat=0 / constrained_intra=0 / bframes=10 / b_pyramid=2 / b_adapt=2 / b_bias=0 / direct=3 / weightb=1 / open_gop=0 / weightp=2 / keyint=240 / keyint_min=23 / scenecut=40 / intra_refresh=0 / rc_lookahead=40 / rc=2pass / mbtree=1 / bitrate=4699 / ratetol=1.0 / qcomp=0.60 / qpmin=10 / qpmax=51 / qpstep=4 / cplxblur=20.0 / qblur=0.5 / vbv_maxrate=50000 / vbv_bufsize=62500 / nal_hrd=none / filler=0 / ip_ratio=1.40 / aq=1:1.00
Default : Да
Forced : Нет
Аудио #1
Идентификатор : 2
Формат : AC-3
Формат/Информация : Audio Coding 3
Расширение режима : CM (complete main)
Параметр Endianness формата : Big
Идентификатор кодека : A_AC3
Продолжительность : 2 ч. 12 м.
Вид битрейта : Постоянный
Битрейт : 192 Кбит/сек
Каналы : 2 канала
Расположение каналов : Front: L R
Частота : 48,0 КГц
Метод сжатия : С потерями
Размер потока : 182 Мбайт (3%)
Заголовок : DUB
Язык : Russian
Default : Да
Forced : Нет
Аудио #2
Идентификатор : 3
Формат : AC-3
Формат/Информация : Audio Coding 3
Расширение режима : CM (complete main)
Параметр Endianness формата : Big
Идентификатор кодека : A_AC3
Продолжительность : 2 ч. 12 м.
Вид битрейта : Постоянный
Битрейт : 192 Кбит/сек
Каналы : 2 канала
Расположение каналов : Front: L R
Частота : 48,0 КГц
Метод сжатия : С потерями
Размер потока : 182 Мбайт (3%)
Заголовок : AVO - Кашкин
Язык : Russian
Default : Нет
Forced : Нет
Аудио #3
Идентификатор : 4
Формат : DTS
Формат/Информация : Digital Theater Systems
Режим : 16
Параметр Endianness формата : Big
Идентификатор кодека : A_DTS
Продолжительность : 2 ч. 12 м.
Вид битрейта : Постоянный
Битрейт : 1509 Кбит/сек
Каналы : 6 каналов
Расположение каналов : Front: L C R, Side: L R, LFE
Частота : 48,0 КГц
Битовая глубина : 24 бит
Метод сжатия : С потерями
Размер потока : 1,40 Гбайт (23%)
Язык : English
Default : Нет
Forced : Нет
Меню
00:00:00.000 : en:
00:01:54.405 : en:
00:03:58.029 : en:
00:07:18.187 : en:
00:09:50.214 : en:
00:11:16.884 : en:
00:14:44.216 : en:
00:17:06.483 : en:
00:20:48.455 : en:
00:22:16.501 : en:
00:24:11.116 : en:
00:30:35.333 : en:
00:35:09.232 : en:
00:36:47.496 : en:
00:37:51.894 : en:
00:39:20.649 : en:
00:41:21.187 : en:
00:44:00.220 : en:
00:45:41.655 : en:
00:47:00.943 : en:
00:48:12.931 : en:
00:51:05.062 : en:
00:53:02.721 : en:
00:56:58.415 : en:
01:06:45.084 : en:
01:10:36.732 : en:
01:14:13.949 : en:
01:15:38.408 : en:
01:20:30.951 : en:
01:22:46.795 : en:
01:24:24.893 : en:
01:25:56.317 : en:
01:28:57.040 : en:
01:32:12.527 : en:
01:35:10.204 : en:
01:36:52.097 : en:
01:39:26.710 : en:
01:42:18.966 : en:
01:44:30.305 : en:
01:45:37.247 : en:
01:47:38.743 : en:
01:51:21.383 : en:
01:52:36.166 : en:
01:54:02.961 : en:
01:55:09.068 : en:
01:59:41.883 : en:
02:04:16.907 : en:
02:05:05.039 : en:
02:06:18.612 : en:
02:12:27.731 : en:


_________________
Проголосуй за трекер Открытый торрент трекер - RUS-MEDIA.ORG

Проголосуй Открытый торрент трекер - RUS-MEDIA.ORG


Вернуться к началу
 Профиль Отправить личное сообщение  
 
   Похожие торренты   Автор   Торрент   Размер 
В этой теме нет новых непрочитанных сообщений. Майкл Коллинз / Michael Collins [триллер, драма, военный, биография, 1996] BDRip 1080p, Dub

salma3

6 | 5

20.36 ГБ

В этой теме нет новых непрочитанных сообщений. Майкл / Michael [фэнтези, драма, комедия, 1996] WEB-DLRip-AVC, Dvo [НТВ+]

salma3

0 | 0

1.45 ГБ

В этой теме нет новых непрочитанных сообщений. Майкл Клейтон / Michael Clayton [Триллер, драма, криминал, детектив, 2007] BDRip 1080p, Mvo+Sub

salma3

75 | 38

7.79 ГБ

В этой теме нет новых непрочитанных сообщений. Антропоид / Anthropoid [триллер, военный, биография, история, 2016] BDRip 720p, Mvo

marya111

845 | 44

5.22 ГБ

В этой теме нет новых непрочитанных сообщений. Мозг Гиммлера зовется Гейдрихом / HHhH [боевик, триллер, военный, биография, 2017] BDRip 720p, Mvo

salma3

89 | 4

3.81 ГБ

В этой теме нет новых непрочитанных сообщений. Освободитель / Libertador [драма, история, военный, биография, 2013] BDRip 720p, Dvo

salma3

143 | 43

6.4 ГБ

В этой теме нет новых непрочитанных сообщений. Кромвель / Cromwell [драма, военный, биография, история, 1970] BDRip 720p, Dvo [НТВ+]

salma3

128 | 12

3.72 ГБ


Начать новую тему Ответить на тему  [ 1 сообщение ] 




Для Мосгорсуда, Роскомнадзора и рекламодателей:: mosgorsud-torrent[собачка]yandex.ru
cron