Торрент файл
скачать торрент магнет ссылка Добавлен: 20 май 2016, 11:17
Размер: 6.28 ГБ
Сидеров: 18
Личеров: 9
Автор

СообщениеДобавлено: 20 май 2016, 11:17 

Не в сети
Супермодератор
Аватара пользователя
Дата регистрации:
15 фев 2012, 16:44
Возраст: 28
Спасибо: 7290 / 2147
Сообщения: 70756
Год выхода: 1982
Жанр: Ужасы, детектив
Режиссер: Хуан Пикер Симон

В ролях: Кристофер Джордж, Линда Дэй Джордж, Фрэнк Брана, Эдмунд Пурдом, Иэн Сера, Джек Тейлор, Жерар Тиши, Мэй Хэзерли, Хильда Фучс, Изабель Луке

О фильме:
Когда мама отругала маленького мальчика за то, что он собирает мозаику с голой тетенькой, мальчуган обиделся и зарубил маму топором. Четверть века спустя он принялся за убийства снова, составляя мозаику из кусков тел обитательниц студенческого кампуса.

Страна: США, Испания, Пуэрто Рико, Италия
Продолжительность: 01:26:52
Перевод: Авторский ((Лебедев)

Файл
Кодек: x264
Качество: BDRip 720p
Видео: MPEG-4 AVC, 9510 Кбит/с, 1200x720, 23.976 кадр/с
Аудио #1: AC3, 2 ch, 192 Кбит/с | Русский
Аудио #2: AC3, 2 ch, 640 Кбит/с | Английский
Субтитры: Английские
* Исходник: Mil.Gritos.Tiene.La.Noche.1982.Uncensored.Director's.Cut.1080p.Blu-ray.Remux.AVC.ESP.DTS-HD.MA.2.0-LEGi0N
* Во время титров за кадром вставлен диалог между полицейскими и женщиной на несколько фраз. Переведено субтитрами.
* Существует две версии этого фильма - оригинальная режиссерская с названием "Mil gritos tiene la noche" на испанском и порезанная на две минуты театральная версия для проката в Америке. Называется "Pieces". Она была на английском языке. Здесь полная режиссерская версия.
Общее
Уникальный идентификатор : 206005305181134787175481098445968539458 (0x9AFB2DB868887AA2BEE57A32372E7F42)
Полное имя : Mil.Gritos.Tiene.la.Noche.1982.BDRip.720p.mkv
Формат : Matroska
Версия формата : Version 4 / Version 2
Размер файла : 6,28 Гбайт
Продолжительность : 1 ч. 26 м.
Общий поток : 10,3 Мбит/сек
Название фильма : Mil gritos tiene la noche
Режиссёр : J.Piquer Simon
Дата кодирования : UTC 2016-05-18 04:02:53
Программа кодирования : mkvmerge v7.7.0 ('Six Voices') 32bit built on Feb 28 2015 23:23:00
Библиотека кодирования : libebml v1.3.1 + libmatroska v1.4.2
Attachements : cover.jpg / Cover.jpg
Release : Koenig
DURATION : 01:24:55.424000000
NUMBER_OF_FRAMES : 762
NUMBER_OF_BYTES : 24406
_STATISTICS_WRITING_APP : mkvmerge v7.7.0 ('Six Voices') 32bit built on Feb 28 2015 23:23:00
_STATISTICS_WRITING_DATE_UTC : 2016-05-18 04:02:53
_STATISTICS_TAGS : BPS DURATION NUMBER_OF_FRAMES NUMBER_OF_BYTES
Видео
Идентификатор : 1
Формат : AVC
Формат/Информация : Advanced Video Codec
Профиль формата : High@L4.1
Параметр CABAC формата : Да
Параметр ReFrames формата : 8 кадров
Идентификатор кодека : V_MPEG4/ISO/AVC
Продолжительность : 1 ч. 26 м.
Битрейт : 9510 Кбит/сек
Ширина : 1200 пикселей
Высота : 720 пикселей
Соотношение сторон : 5:3
Режим частоты кадров : Постоянный
Частота кадров : 23,976 кадра/сек
Цветовое пространство : YUV
Субдискретизация насыщенности : 4:2:0
Битовая глубина : 8 бит
Тип развёртки : Прогрессивная
Бит/(Пиксели*Кадры) : 0.459
Размер потока : 5,65 Гбайт (90%)
Библиотека кодирования : x264 core 146 r2538 121396c
Настройки программы : cabac=1 / ref=8 / deblock=1:-3:-3 / analyse=0x3:0x133 / me=umh / subme=10 / psy=1 / psy_rd=1.10:0.10 / mixed_ref=1 / me_range=32 / chroma_me=1 / trellis=2 / 8x8dct=1 / cqm=0 / deadzone=21,11 / fast_pskip=0 / chroma_qp_offset=-3 / threads=3 / lookahead_threads=1 / sliced_threads=0 / nr=0 / decimate=1 / interlaced=0 / bluray_compat=0 / constrained_intra=0 / bframes=10 / b_pyramid=2 / b_adapt=2 / b_bias=0 / direct=3 / weightb=1 / open_gop=0 / weightp=2 / keyint=240 / keyint_min=23 / scenecut=40 / intra_refresh=0 / rc_lookahead=40 / rc=2pass / mbtree=1 / bitrate=9510 / ratetol=1.0 / qcomp=0.60 / qpmin=10 / qpmax=51 / qpstep=4 / cplxblur=20.0 / qblur=0.5 / vbv_maxrate=50000 / vbv_bufsize=62500 / nal_hrd=none / filler=0 / ip_ratio=1.40 / aq=1:1.00
Default : Да
Forced : Нет
Аудио #1
Идентификатор : 2
Формат : AC-3
Формат/Информация : Audio Coding 3
Расширение режима : CM (complete main)
Параметр Endianness формата : Big
Идентификатор кодека : A_AC3
Продолжительность : 1 ч. 26 м.
Вид битрейта : Постоянный
Битрейт : 192 Кбит/сек
Каналы : 2 канала
Расположение каналов : Front: L R
Частота : 48,0 КГц
Метод сжатия : С потерями
Размер потока : 119 Мбайт (2%)
Заголовок : AVO - Лебедев
Язык : Russian
Default : Да
Forced : Нет
Аудио #2
Идентификатор : 3
Формат : AC-3
Формат/Информация : Audio Coding 3
Расширение режима : CM (complete main)
Параметр Endianness формата : Big
Идентификатор кодека : A_AC3
Продолжительность : 1 ч. 26 м.
Вид битрейта : Постоянный
Битрейт : 640 Кбит/сек
Каналы : 2 канала
Расположение каналов : Front: L R
Частота : 48,0 КГц
Метод сжатия : С потерями
Размер потока : 398 Мбайт (6%)
Язык : English
Default : Нет
Forced : Нет
Текст #1
Идентификатор : 4
Формат : UTF-8
Идентификатор кодека : S_TEXT/UTF8
Идентификатор кодека/Информация : UTF-8 Plain Text
Язык : Russian
Default : Да
Forced : Нет
Текст #2
Идентификатор : 5
Формат : UTF-8
Идентификатор кодека : S_TEXT/UTF8
Идентификатор кодека/Информация : UTF-8 Plain Text
Язык : English
Default : Нет
Forced : Нет
Меню
00:00:00.000 : en:Boston, 1942
00:02:00.120 : en:Matricide
00:02:10.672 : en:Main Titles
00:05:38.713 : en:FORTY YEARS LATER
00:08:59.080 : en:Getting a head
00:09:39.496 : en:Park decapitation
00:10:42.308 : en:What are the pectorals
00:11:34.110 : en:Buying clothes without labels
00:15:48.322 : en:Willard
00:16:46.672 : en:Miss Torso
00:18:54.008 : en:The pool
00:20:59.091 : en:Pool killing
00:22:01.362 : en:Too young to die
00:24:01.315 : en:Willard on the defensive
00:26:50.859 : en:Creepy
00:31:00.609 : en:Running around
00:34:25.313 : en:Undercover tennis pro
00:37:23.324 : en:Tennis
00:40:27.508 : en:Search for arms
00:46:00.591 : en:A farewell to arms
00:49:46.233 : en:In bed with Chainsaw Charlie
00:52:11.211 : en:Bad chop suey
00:53:56.150 : en:Night stalker
00:57:01.001 : en:The waterbed
00:58:03.313 : en:Casanova
00:59:22.976 : en:Looking for legs
01:03:03.446 : en:Lady sawed in half
01:05:48.319 : en:BASTARD!!!
01:07:30.129 : en:The agony of the feet
01:10:45.908 : en:Coffee with cream
01:15:25.521 : en:Kendall solves the case
01:17:23.597 : en:I feel funny
01:19:38.023 : en:The climax
01:24:33.193 : en:The puzzle
01:25:44.890 : en:The Final horror
01:26:00.322 : en:End credits


_________________
Проголосуй за трекер Открытый торрент трекер - RUS-MEDIA.ORG

Проголосуй Открытый торрент трекер - RUS-MEDIA.ORG


Вернуться к началу
 Профиль Отправить личное сообщение  
 
   Похожие торренты   Автор   Торрент   Размер 
В этой теме нет новых непрочитанных сообщений. Дом, где падает кровь / The Dorm That Dripped Blood [ужасы, детектив, 1982] BDRip, Avo

salma3

51 | 15

1.46 ГБ

В этой теме нет новых непрочитанных сообщений. Полтергейст / Poltergeist [Ужасы, триллер, 1982] BDRip 720p, Mvo

salma3

0 | 0

5.76 ГБ

В этой теме нет новых непрочитанных сообщений. Ночное предупреждение / Night Warning [ужасы, 1982] BDRip 720p, Avo

salma3

32 | 17

5.88 ГБ

В этой теме нет новых непрочитанных сообщений. Пропавший без вести / Missing [драма, детектив, история, 1982] BDRip 720p, Mvo

salma3

22 | 18

5.73 ГБ

В этой теме нет новых непрочитанных сообщений. Охота на индюшек / Turkey Shoot [ужасы, фантастика, триллер, драма, 1982] BDRip 720p, Dvo+Avo+Sub

salma3

20 | 5

3.31 ГБ

В этой теме нет новых непрочитанных сообщений. Проклятое дитя / Манхэттенское дитя / Manhattan Baby [ужасы, хоррор, 1982] BDRip 720p, Avo

salma3

15 | 7

3.01 ГБ

В этой теме нет новых непрочитанных сообщений. Ближайший родственник / Next of Kin [ужасы, детектив, 1982] DVDRip, Avo

salma3

0 | 0

745.22 МБ


Начать новую тему Ответить на тему  [ 1 сообщение ] 




Для Мосгорсуда, Роскомнадзора и рекламодателей:: mosgorsud-torrent[собачка]yandex.ru
cron