Торрент файл
скачать торрент магнет ссылка Добавлен: 20 май 2016, 11:00
Размер: 7.42 ГБ
Сидеров: 46
Личеров: 13
Автор

СообщениеДобавлено: 20 май 2016, 11:00 

Не в сети
Супермодератор
Аватара пользователя
Дата регистрации:
15 фев 2012, 16:44
Возраст: 28
Спасибо: 7285 / 2147
Сообщения: 70229
Год выхода: 2010
Страна: Канада
Студия: Capital Productions, Thrill Films
Продолжительность: 01:33:22
Жанр: триллер, драма, криминал
Режиссер: Джим Донован

В ролях: Меган Парк, Дэвид Чэрвет, Боти Блисс, Кеева Лунк, Аманда Джейн Тилсон, Кимберли-Суе Муррау, Кристина Брокколини, Джеймс Макгоун, Джудит Берибей, ...
Перевод: Профессиональный (многоголосный, закадровый)

О фильме: Когда учитель математики и тренер волейбольной команды Джим Уилкис принимает предложение о работе в старших классах элитной школы Филадельфии, он и понятия не имеет, что станет объектом сексуального преследования одной из учениц школы. Семнадцатилетняя красотка, Девон Кори сразу положила на него глаз. Но узнав, что у Джима есть подруга и горячо любимая дочь, она решает, что он будет принадлежать лишь ей одной или не достанется никому…



Кодек: x264
Качество: BDRip 1080p
Видео: 1920x1080, 9970 kbps, 24 fps
Аудио #1: AC-3, 6 ch, 640 kbps (Rus) - MVO
Аудио #2: DTS, 6 ch, 768 kbps (Est)
Субтитры: Русские, Английские
Спасибо за исходник
x264 [info]: frame I:1055 Avg QP:12.13 size:195574
x264 [info]: frame P:32081 Avg QP:15.40 size: 95421
x264 [info]: frame B:101314 Avg QP:17.10 size: 36649
x264 [info]: consecutive B-frames: 2.9% 3.4% 12.7% 20.2% 19.7% 39.7% 1.2% 0.1% 0.0% 0.0% 0.1%
Общее
Уникальный идентификатор : 210547552670838970226977218708475157947 (0x9E65FBCFDF2D6FFCAC0EF570690F1DBB)
Полное имя : Любимый учитель (The Perfect Teacher) 2010 BDRip 1080p.mkv
Формат : Matroska
Версия формата : Version 2
Размер файла : 7,42 Гбайт
Продолжительность : 1 ч. 33 м.
Общий поток : 11,4 Мбит/сек
Дата кодирования : UTC 2016-05-19 15:22:05
Программа кодирования : mkvmerge v4.0.0 ('The Stars were mine') сборка от Jun 6 2010 16:18:42
Библиотека кодирования : libebml v1.0.0 + libmatroska v1.0.0
Видео
Идентификатор : 1
Формат : AVC
Формат/Информация : Advanced Video Codec
Профиль формата : High@L4.1
Параметр CABAC формата : Да
Параметр ReFrames формата : 4 кадра
Идентификатор кодека : V_MPEG4/ISO/AVC
Продолжительность : 1 ч. 33 м.
Битрейт : 9970 Кбит/сек
Ширина : 1920 пикселей
Высота : 1080 пикселей
Соотношение сторон : 16:9
Режим частоты кадров : Постоянный
Частота кадров : 24,000 кадра/сек
Цветовое пространство : YUV
Субдискретизация насыщенности : 4:2:0
Битовая глубина : 8 бит
Тип развёртки : Прогрессивная
Бит/(Пиксели*Кадры) : 0.200
Размер потока : 6,36 Гбайт (86%)
Библиотека кодирования : x264 core 146 r2538 121396c
Настройки программы : cabac=1 / ref=4 / deblock=1:-3:-3 / analyse=0x3:0x133 / me=umh / subme=11 / psy=1 / psy_rd=1.00:0.00 / mixed_ref=1 / me_range=32 / chroma_me=1 / trellis=2 / 8x8dct=1 / cqm=0 / deadzone=21,11 / fast_pskip=0 / chroma_qp_offset=-2 / threads=12 / lookahead_threads=2 / sliced_threads=0 / nr=0 / decimate=0 / interlaced=0 / bluray_compat=0 / constrained_intra=0 / bframes=10 / b_pyramid=2 / b_adapt=2 / b_bias=0 / direct=3 / weightb=1 / open_gop=0 / weightp=2 / keyint=240 / keyint_min=24 / scenecut=40 / intra_refresh=0 / rc_lookahead=60 / rc=2pass / mbtree=1 / bitrate=9970 / ratetol=1.0 / qcomp=0.60 / qpmin=0 / qpmax=69 / qpstep=4 / cplxblur=20.0 / qblur=0.5 / ip_ratio=1.40 / aq=1:0.80
Язык : English
Default : Нет
Forced : Нет
Аудио #1
Идентификатор : 2
Формат : AC-3
Формат/Информация : Audio Coding 3
Расширение режима : CM (complete main)
Параметр Endianness формата : Big
Идентификатор кодека : A_AC3
Продолжительность : 1 ч. 33 м.
Вид битрейта : Постоянный
Битрейт : 640 Кбит/сек
Каналы : 6 каналов
Расположение каналов : Front: L C R, Side: L R, LFE
Частота : 48,0 КГц
Метод сжатия : С потерями
Размер потока : 427 Мбайт (6%)
Заголовок : MVO
Язык : Russian
Default : Нет
Forced : Нет
Аудио #2
Идентификатор : 3
Формат : DTS
Формат/Информация : Digital Theater Systems
Режим : 16
Параметр Endianness формата : Big
Идентификатор кодека : A_DTS
Продолжительность : 1 ч. 33 м.
Вид битрейта : Постоянный
Битрейт : 768 Кбит/сек
Каналы : 6 каналов
Расположение каналов : Front: L C R, Side: L R, LFE
Частота : 48,0 КГц
Битовая глубина : 16 бит
Метод сжатия : С потерями
Размер потока : 513 Мбайт (7%)
Язык : English
Default : Нет
Forced : Нет
Текст #1
Идентификатор : 4
Формат : UTF-8
Идентификатор кодека : S_TEXT/UTF8
Идентификатор кодека/Информация : UTF-8 Plain Text
Язык : Russian
Default : Нет
Forced : Нет
Текст #2
Идентификатор : 5
Формат : UTF-8
Идентификатор кодека : S_TEXT/UTF8
Идентификатор кодека/Информация : UTF-8 Plain Text
Язык : English
Default : Нет
Forced : Нет



_________________
Проголосуй за трекер Открытый торрент трекер - RUS-MEDIA.ORG

Проголосуй Открытый торрент трекер - RUS-MEDIA.ORG


Вернуться к началу
 Профиль Отправить личное сообщение  
 
   Похожие торренты   Автор   Торрент   Размер 
В этой теме нет новых непрочитанных сообщений. Любимый учитель / The Perfect Teacher [Триллер, 2010] BDRemux 1080p, Mvo+Sub

salma3

46 | 22

18.38 ГБ

В этой теме нет новых непрочитанных сообщений. Любимый учитель / The Perfect Teacher [Триллер, 2010] BDRip 720p, Mvo+Sub

salma3

218 | 83

3.99 ГБ

В этой теме нет новых непрочитанных сообщений. Идеальный незнакомец / Perfect Stranger [триллер, драма, криминал, 2007] BDRemux 1080p, Dub

salma3

0 | 0

19.2 ГБ

В этой теме нет новых непрочитанных сообщений. My First Sex Teacher 54 / Мой Первый Сексуальный Учитель 54 (Naughty America) [2017 г., All Sex, Oral, Gonzo, Big Tits, Teachers, WEB-DL] (Split Scenes)

salma3

27 | 9

2.82 ГБ

В этой теме нет новых непрочитанных сообщений. Замена / Учитель на замену / The Substitute [боевик, триллер, драма, криминал, 1996] HDRip, Mvo

salma3

63 | 5

1.45 ГБ

В этой теме нет новых непрочитанных сообщений. Любимый / Dulaara [Триллер, криминал, детектив, 1994] DVDRip, Mvo

salma3

21 | 9

2.05 ГБ

В этой теме нет новых непрочитанных сообщений. I Fucked My High School Teacher 5 / Меня трахнул мой школьный учитель 5 (Temptation Entertainment) [2004 г., Anal, Big Boobs, Gonzo, DVDRip] (Split Scenes)

salma3

2 | 2

977.38 МБ


Начать новую тему Ответить на тему  [ 1 сообщение ] 




Для Мосгорсуда, Роскомнадзора и рекламодателей:: mosgorsud-torrent[собачка]yandex.ru
cron