Торрент файл
скачать торрент магнет ссылка Добавлен: 13 май 2016, 20:54
Размер: 5.54 ГБ
Сидеров: 0
Личеров: 1
Автор

СообщениеДобавлено: 13 май 2016, 20:54 

Не в сети
Супермодератор
Аватара пользователя
Дата регистрации:
15 фев 2012, 16:44
Возраст: 28
Спасибо: 7224 / 2147
Сообщения: 68058
Год выхода: 1990
Жанр: Триллер, драма, военный
Режиссер: Джон Франкенхаймер

В ролях: Рой Шайдер, Юрген Прохнов, Тим Рейд, Лара Харрис, Гарри Дин Стэнтон, Дейл Дай, Уильям МакДональд, Дэвид Палффи, Нил Гран, Эрни Джексон

О фильме:
1988 год. Германо-чешская граница. На Востоке еще только начинаются перемены. Нейтральной полосой разделены два контингента войск - советские в Чехословакии и американские с немецкой стороны. По разные стороны границы оказываются два ветерана? полковник Кноуз, прошедший Вьетнам, и полковник Валачев, за плечами которого Афганистан.Много лет они смотрели друг на друга в прорезь прицела, а теперь встретились, чтобы в поединке один на один предотвратить возможно, третью мировую войну.

Страна: США, Канада
Продолжительность: 01:30:26
Перевод: Профессиональный многоголосый, авторский
Файл
Кодек: x264
Качество: BDRip 720p
Видео: MPEG-4 AVC, 6300 Кбит/с, 1280x696, 23.976 кадр/с
Аудио #1: АС3, 2 ch, 384 Кбит/с | Профессиональный многоголосый
Аудио #2: АС3, 2 ch, 192 Кбит/с | Профессиональный многоголосый (Paramount Channel)
Аудио #3: АС3, 2 ch, 192 Кбит/с | Авторский (В.Дохалов)
Аудио #4: АС3, 2 ch, 192 Кбит/с | Авторский (П.Карцев)
Аудио #5: DTS, 2 ch, 1509 Кбит/с | Английский
Общее
Уникальный идентификатор : 237042861569563246613435756936717841948 (0xB254CB65A9C1DE969327AB39C8AEB61C)
Полное имя : The Fourth War.1990.BDRip.720p.mkv
Формат : Matroska
Версия формата : Version 4 / Version 2
Размер файла : 5,54 Гбайт
Продолжительность : 1 ч. 30 м.
Общий поток : 8767 Кбит/сек
Дата кодирования : UTC 2016-05-12 18:33:00
Программа кодирования : mkvmerge v7.7.0 ('Six Voices') 32bit built on Feb 28 2015 23:23:00
Библиотека кодирования : libebml v1.3.1 + libmatroska v1.4.2
Attachements : cover.jpg
DURATION : 01:30:26.006000000
NUMBER_OF_FRAMES : 508688
NUMBER_OF_BYTES : 1023480320
_STATISTICS_WRITING_APP : mkvmerge v7.7.0 ('Six Voices') 32bit built on Feb 28 2015 23:23:00
_STATISTICS_WRITING_DATE_UTC : 2016-05-12 18:33:00
_STATISTICS_TAGS : BPS DURATION NUMBER_OF_FRAMES NUMBER_OF_BYTES
Видео
Идентификатор : 1
Формат : AVC
Формат/Информация : Advanced Video Codec
Профиль формата : High@L4.1
Параметр CABAC формата : Да
Параметр ReFrames формата : 8 кадров
Идентификатор кодека : V_MPEG4/ISO/AVC
Продолжительность : 1 ч. 30 м.
Битрейт : 6299 Кбит/сек
Ширина : 1280 пикселей
Высота : 696 пикселей
Соотношение сторон : 1,85:1
Режим частоты кадров : Постоянный
Частота кадров : 23,976 кадра/сек
Цветовое пространство : YUV
Субдискретизация насыщенности : 4:2:0
Битовая глубина : 8 бит
Тип развёртки : Прогрессивная
Бит/(Пиксели*Кадры) : 0.295
Размер потока : 3,87 Гбайт (70%)
Библиотека кодирования : x264 core 146 r2538 121396c
Настройки программы : cabac=1 / ref=8 / deblock=1:-3:-3 / analyse=0x3:0x133 / me=umh / subme=10 / psy=1 / psy_rd=1.00:0.00 / mixed_ref=1 / me_range=32 / chroma_me=1 / trellis=2 / 8x8dct=1 / cqm=0 / deadzone=21,11 / fast_pskip=0 / chroma_qp_offset=-2 / threads=3 / lookahead_threads=1 / sliced_threads=0 / nr=0 / decimate=1 / interlaced=0 / bluray_compat=0 / constrained_intra=0 / bframes=10 / b_pyramid=2 / b_adapt=2 / b_bias=0 / direct=3 / weightb=1 / open_gop=0 / weightp=2 / keyint=240 / keyint_min=23 / scenecut=40 / intra_refresh=0 / rc_lookahead=40 / rc=2pass / mbtree=1 / bitrate=6299 / ratetol=1.0 / qcomp=0.60 / qpmin=10 / qpmax=51 / qpstep=4 / cplxblur=20.0 / qblur=0.5 / vbv_maxrate=50000 / vbv_bufsize=62500 / nal_hrd=none / filler=0 / ip_ratio=1.40 / aq=1:1.00
Default : Да
Forced : Нет
Аудио #1
Идентификатор : 2
Формат : AC-3
Формат/Информация : Audio Coding 3
Расширение режима : CM (complete main)
Параметр Endianness формата : Big
Идентификатор кодека : A_AC3
Продолжительность : 1 ч. 30 м.
Вид битрейта : Постоянный
Битрейт : 384 Кбит/сек
Каналы : 2 канала
Расположение каналов : Front: L R
Частота : 48,0 КГц
Метод сжатия : С потерями
Размер потока : 248 Мбайт (4%)
Заголовок : MVO
Язык : Russian
Default : Да
Forced : Нет
Аудио #2
Идентификатор : 3
Формат : AC-3
Формат/Информация : Audio Coding 3
Расширение режима : CM (complete main)
Параметр Endianness формата : Big
Идентификатор кодека : A_AC3
Продолжительность : 1 ч. 30 м.
Вид битрейта : Постоянный
Битрейт : 192 Кбит/сек
Каналы : 2 канала
Расположение каналов : Front: L R
Частота : 48,0 КГц
Метод сжатия : С потерями
Размер потока : 124 Мбайт (2%)
Заголовок : MVO - Paramount Channel
Язык : Russian
Default : Нет
Forced : Нет
Аудио #3
Идентификатор : 4
Формат : AC-3
Формат/Информация : Audio Coding 3
Расширение режима : CM (complete main)
Параметр Endianness формата : Big
Идентификатор кодека : A_AC3
Продолжительность : 1 ч. 30 м.
Вид битрейта : Постоянный
Битрейт : 192 Кбит/сек
Каналы : 2 канала
Расположение каналов : Front: L R
Частота : 48,0 КГц
Метод сжатия : С потерями
Размер потока : 124 Мбайт (2%)
Заголовок : AVO - В.Дохалов
Язык : Russian
Default : Нет
Forced : Нет
Аудио #4
Идентификатор : 5
Формат : AC-3
Формат/Информация : Audio Coding 3
Расширение режима : CM (complete main)
Параметр Endianness формата : Big
Идентификатор кодека : A_AC3
Продолжительность : 1 ч. 30 м.
Вид битрейта : Постоянный
Битрейт : 192 Кбит/сек
Каналы : 2 канала
Расположение каналов : Front: L R
Частота : 48,0 КГц
Метод сжатия : С потерями
Размер потока : 124 Мбайт (2%)
Заголовок : AVO - П.Карцев
Язык : Russian
Default : Нет
Forced : Нет
Аудио #5
Идентификатор : 6
Формат : DTS
Формат/Информация : Digital Theater Systems
Режим : 16
Параметр Endianness формата : Big
Идентификатор кодека : A_DTS
Продолжительность : 1 ч. 30 м.
Вид битрейта : Постоянный
Битрейт : 1509 Кбит/сек
Каналы : 2 канала
Расположение каналов : Front: L R
Частота : 48,0 КГц
Битовая глубина : 16 бит
Метод сжатия : С потерями
Размер потока : 976 Мбайт (17%)
Язык : English
Default : Нет
Forced : Нет
Меню
00:00:00.000 : en:
00:14:32.413 : en:
00:24:08.320 : en:
00:35:17.989 : en:
00:47:18.335 : en:
00:54:17.379 : en:
01:03:42.109 : en:
01:13:16.140 : en:


_________________
Проголосуй за трекер Открытый торрент трекер - RUS-MEDIA.ORG

Проголосуй Открытый торрент трекер - RUS-MEDIA.ORG


Вернуться к началу
 Профиль Отправить личное сообщение  
 
   Похожие торренты   Автор   Торрент   Размер 
В этой теме нет новых непрочитанных сообщений. Война Харта / Hart's War [драма, военный, 2002] BDRip 720p, Mvo

salma3

4 | 1

7.53 ГБ

В этой теме нет новых непрочитанных сообщений. Рожденный четвертого июля / Born on the Fourth of July [драма, военный, биография, 1989] BDRip 1080p, Dub

salma3

35 | 34

20.07 ГБ

В этой теме нет новых непрочитанных сообщений. Война волков 2 / Wolf Warrior 2 / Zhan lang 2 [драма, боевик, военный, 2017] BDRip 720p, Mvo

salma3

0 | 0

6.62 ГБ

В этой теме нет новых непрочитанных сообщений. Война / Man Down [триллер, драма, 2016] BDRip 720p, Dub+Sub [iTunes]

salma3

1211 | 442

5.58 ГБ

В этой теме нет новых непрочитанных сообщений. Война Харта / Hart's War [драма, военный, 2002] BDRip 1080p, Mvo

salma3

11 | 8

13.08 ГБ

В этой теме нет новых непрочитанных сообщений. Кидалы / The Grifters [триллер, драма, криминал, 1990] BDRip 720p, Mvo

salma3

0 | 0

8.05 ГБ

В этой теме нет новых непрочитанных сообщений. Мизери / Misery [ужасы, триллер, драма, 1990] BDRip 720p, Mvo+Avo+Sub

salma3

23 | 6

7.61 ГБ


Начать новую тему Ответить на тему  [ 1 сообщение ] 




Для Мосгорсуда, Роскомнадзора и рекламодателей:: mosgorsud-torrent[собачка]yandex.ru
cron