Торрент файл
скачать торрент магнет ссылка Добавлен: 03 май 2016, 11:32
Размер: 4.93 ГБ
Сидеров: 81
Личеров: 41
Автор

СообщениеДобавлено: 03 май 2016, 11:32 

Не в сети
Супермодератор
Аватара пользователя
Дата регистрации:
15 фев 2012, 16:44
Возраст: 28
Спасибо: 7207 / 2147
Сообщения: 65665
Год выхода: 1989
Жанр: боевик, триллер, драма, криминал
Режиссер: Джон Дал / John Dahl

В ролях: Вэл Килмер (Jack Andrews), Джоэнн Уэлли-Килмер (Fay Forrester), Майкл Мэдсен (Vince Miller), Джонатан Грайс (Alan Swayzie), Пэт Маллиган (Sammy), Ник Дмитрий (Marty), Роберт Шух (Collection Agent #1), Дуан Такер (Collection Agent #2), Молли Фланеджин (Gossipy Motel Clerk), Доминик Динино (Rest Stop Little Boy)

О фильме:
Обворожительная преступница Фэй вместе со своим дружком Винсом ограбила курьеров, перевозивших деньги мафии. «Вырубив» Винса, Фэй скрылась вместе с деньгами. Чтобы замести следы, она обращается за помощью к частному детективу Джеку и просит его сымитировать ее смерть. Попав под власть чар Фэй, Джек соглашается, и как по нотам разыгрывает «иллюзию убийства». Фэй исчезает, а полиция, мафия и Винс начинают охотиться за Джеком, чтобы выяснить, где деньги и …«труп» Фэй.



Страна: США
Продолжительность: 01:34:44.256
Перевод: Профессиональный (двухголосый закадровый) Екатеринбург Арт
Профессиональный (многоголосый закадровый) R5 Новый Диск

Файл
Кодек: h.264 Исходник BD25 Olive Films
Качество: BDRip 720p
Видео: 1280x696 (1.85:1), 23.976 fps, AVC, ~6612 Kbps, 0.310 bits/pixel
Звук: (все зв. дорожки - двойное моно)
Русский, 48.0 KHz, AC3, 2 ch, 192 Kbps Екатеринбург Арт
Русский, 48.0 KHz, AC3, 2 ch, 192 Kbps R5 Новый Диск
Английский, 48.0 KHz, AC3, 2 ch, 448 Kbps
Субтитры: Английские,SRT(UTF-8)
Общее
Уникальный идентификатор : 214581622895886668596239115849783046934 (0xA16EEAD480CA52A2848A84BFA2CBF316)
Полное имя : E:FILMSUbei_menya_snova.1989.BDRip720p.mkv
Формат : Matroska
Версия формата : Version 4 / Version 2
Размер файла : 4,93 Гбайт
Продолжительность : 1 ч. 34 м.
Общий поток : 7443 Кбит/сек
Дата кодирования : UTC 2016-05-02 15:11:26
Программа кодирования : mkvmerge v9.1.0 ('Little Earthquakes') 64bit
Библиотека кодирования : libebml v1.3.3 + libmatroska v1.4.4
Видео
Идентификатор : 1
Формат : AVC
Формат/Информация : Advanced Video Codec
Профиль формата : High@L4.1
Параметр CABAC формата : Да
Параметр ReFrames формата : 9 кадров
Идентификатор кодека : V_MPEG4/ISO/AVC
Продолжительность : 1 ч. 34 м.
Битрейт : 6612 Кбит/сек
Ширина : 1280 пикселей
Высота : 696 пикселей
Соотношение сторон : 1,85:1
Режим частоты кадров : Постоянный
Частота кадров : 23,976 (24000/1001) кадра/сек
Цветовое пространство : YUV
Субдискретизация насыщенности : 4:2:0
Битовая глубина : 8 бит
Тип развёртки : Прогрессивная
Бит/(Пиксели*Кадры) : 0.310
Размер потока : 4,37 Гбайт (89%)
Библиотека кодирования : x264 core 148 r2638 7599210
Настройки программы : cabac=1 / ref=9 / deblock=1:-3:-3 / analyse=0x3:0x133 / me=umh / subme=11 / psy=1 / psy_rd=1.10:0.15 / mixed_ref=1 / me_range=48 / chroma_me=1 / trellis=2 / 8x8dct=1 / cqm=0 / deadzone=21,11 / fast_pskip=0 / chroma_qp_offset=-3 / threads=8 / lookahead_threads=2 / sliced_threads=0 / nr=0 / decimate=0 / interlaced=0 / bluray_compat=0 / constrained_intra=0 / bframes=10 / b_pyramid=2 / b_adapt=2 / b_bias=0 / direct=3 / weightb=1 / open_gop=0 / weightp=2 / keyint=240 / keyint_min=23 / scenecut=40 / intra_refresh=0 / rc_lookahead=60 / rc=2pass / mbtree=0 / bitrate=6612 / ratetol=1.0 / qcomp=0.60 / qpmin=0 / qpmax=69 / qpstep=4 / cplxblur=20.0 / qblur=0.5 / vbv_maxrate=40000 / vbv_bufsize=50000 / nal_hrd=none / filler=0 / ip_ratio=1.40 / pb_ratio=1.30 / aq=1:1.00
Default : Нет
Forced : Нет
Цветовой диапазон : Limited
Основные цвета : BT.709
Характеристики трансфера : BT.709
Коэффициенты матрицы : BT.709
Аудио #1
Идентификатор : 2
Формат : AC-3
Формат/Информация : Audio Coding 3
Расширение режима : CM (complete main)
Параметр Endianness формата : Big
Идентификатор кодека : A_AC3
Продолжительность : 1 ч. 34 м.
Вид битрейта : Постоянный
Битрейт : 192 Кбит/сек
Каналы : 2 канала
Расположение каналов : Front: L R
Частота : 48,0 КГц
Частота кадров : 31,250 кадров/сек (1536 spf)
Метод сжатия : С потерями
Размер потока : 130 Мбайт (3%)
Заголовок : Ekaterinburg_Art
Язык : Russian
Default : Да
Forced : Нет
Аудио #2
Идентификатор : 3
Формат : AC-3
Формат/Информация : Audio Coding 3
Расширение режима : CM (complete main)
Параметр Endianness формата : Big
Идентификатор кодека : A_AC3
Продолжительность : 1 ч. 34 м.
Вид битрейта : Постоянный
Битрейт : 192 Кбит/сек
Каналы : 2 канала
Расположение каналов : Front: L R
Частота : 48,0 КГц
Частота кадров : 31,250 кадров/сек (1536 spf)
Метод сжатия : С потерями
Размер потока : 130 Мбайт (3%)
Заголовок : R5_Noviy_disk
Язык : Russian
Default : Нет
Forced : Нет
Аудио #3
Идентификатор : 4
Формат : AC-3
Формат/Информация : Audio Coding 3
Расширение режима : CM (complete main)
Параметр Endianness формата : Big
Идентификатор кодека : A_AC3
Продолжительность : 1 ч. 34 м.
Вид битрейта : Постоянный
Битрейт : 448 Кбит/сек
Каналы : 2 канала
Расположение каналов : Front: L R
Частота : 48,0 КГц
Частота кадров : 31,250 кадров/сек (1536 spf)
Метод сжатия : С потерями
Размер потока : 304 Мбайт (6%)
Язык : English
Default : Нет
Forced : Нет
Текст
Идентификатор : 5
Формат : UTF-8
Идентификатор кодека : S_TEXT/UTF8
Идентификатор кодека/Информация : UTF-8 Plain Text
Продолжительность : 1 ч. 25 м.
Битрейт : 37 бит/сек
Count of elements : 675
Размер потока : 23,3 Кбайт (0%)
Язык : English
Default : Нет
Forced : Нет

frame I:877 Avg QP:17.09 size:127668
frame P:24389 Avg QP:19.58 size: 58087
frame B:111018 Avg QP:21.39 size: 28529


Релиз от: Temperest


_________________
Проголосуй за трекер Открытый торрент трекер - RUS-MEDIA.ORG

Проголосуй Открытый торрент трекер - RUS-MEDIA.ORG


Вернуться к началу
 Профиль Отправить личное сообщение  
 
   Похожие торренты   Автор   Торрент   Размер 
В этой теме нет новых непрочитанных сообщений. Убей меня снова / Kill Me Again [Боевик, триллер, драма, криминал, 1989] BDRip, Mvo

salma3

0 | 1

1.45 ГБ

В этой теме нет новых непрочитанных сообщений. Убей их всех / Kill 'em All [Боевик, триллер, криминал, 2012] BDRip 720p, Dvo [НТВ+]

salma3

69 | 36

3.75 ГБ

В этой теме нет новых непрочитанных сообщений. Убить дважды / Убивай снова и снова / Kill and Kill Again [Боевик, драма, 1981] BDRip 1080p, Avo

salma3

12 | 11

9.25 ГБ

В этой теме нет новых непрочитанных сообщений. Джеймс Бонд 007: Лицензия на убийство / James Bond 007: Licence to Kill [Боевик, триллер, приключения, 1989] BDRip 720p, Dub

salma3

0 | 0

9.07 ГБ

В этой теме нет новых непрочитанных сообщений. Убей своих друзей / Kill Your Friends [триллер, комедия, криминал, 2015] HDRip, Dvo

salma3

105 | 6

1.45 ГБ

В этой теме нет новых непрочитанных сообщений. Жестокий полицейский / Violent cop [боевик, триллер, драма, криминал, 1989] BDRip 720p, Dvo+Sub

salma3

71 | 14

6.33 ГБ

В этой теме нет новых непрочитанных сообщений. Убей за меня / Kill for Me [триллер, драма, 2016] WEBDLRip, Mvo

salma3

149 | 31

1.37 ГБ


Начать новую тему Ответить на тему  [ 1 сообщение ] 




Для Мосгорсуда, Роскомнадзора и рекламодателей:: mosgorsud-torrent[собачка]yandex.ru
cron