Торрент файл
скачать торрент магнет ссылка Добавлен: 02 май 2016, 21:15
Размер: 4.57 ГБ
Сидеров: 20
Личеров: 3
Автор

СообщениеДобавлено: 02 май 2016, 21:15 

В сети
Супермодератор
Аватара пользователя
Дата регистрации:
15 фев 2012, 16:44
Возраст: 28
Спасибо: 6480 / 2129
Сообщения: 41123
Перевод: Профессиональный (полное дублирование)
Субтитры: Отсутствуют
Формат: BDRip, MKV, H.264, MP3/DTS
Страна: США
Режиссер: Адам Шиндлер
Жанр: Ужасы, триллер, драма
Продолжительность: 01:26:22
Год выпуска: 2015
В ролях: Рори Калкин, Летисия Хименез, Джек Кеси, Тимоти Т. МакКинни, Джошуа Микель, Бэт Рисграф, Мартин Старр

Описание: Анна страдает от агорафобии, поэтому, когда трое преступников врываются в ее дом, она не может заставить себя выбежать на улицу. Злоумышленники пока не знают, что боязнь открытого пространства — не единственное расстройство психики девушки.



Видео: 1280x536p (2.40:1), 25 fps, AVC MPEG-4 (x264), ~ 5085 Kbps, 0.296 bit/pixel
Аудио #1: Русский: MP3, 48 kHz, 2 ch, 320 Kbps [Профессиональный (полное дублирование)]
Aудио #2: Английский: DTS, 48 kHz, 6 ch, 1509 Kbps [Оригинал]

Доп. информация: Релиз без рекламы.

General
Unique ID : 175464294411249887631081082987488163452 (0x840131A1F8BA78F58D1EABF3AF6B367C)
Complete name : D:\torrent\Shut.In.2015.BDRip.720p.pics-ru.net.mkv
Format : Matroska
Format version : Version 4 / Version 2
File size : 4.57 GiB
Duration : 1h 32mn
Overall bit rate : 7 054 Kbps
Movie name : rustorrents.info
Encoded date : UTC 2016-04-14 14:31:45
Writing application : mkvmerge v6.1.0 ('Old Devil') built on Mar 4 2013 09:10:42
Writing library : libebml v1.3.0 + libmatroska v1.4.0

Video
ID : 1
Format : AVC
Format/Info : Advanced Video Codec
Format profile :
Format settings, CABAC : Yes
Format settings, ReFrames : 5 frames
Codec ID : V_MPEG4/ISO/AVC
Duration : 1h 32mn
Bit rate : 5 085 Kbps
Nominal bit rate : 5 727 Kbps
Width : 1 280 pixels
Height : 536 pixels
Display aspect ratio : 2.40:1
Frame rate mode : Constant
Frame rate : 25.000 fps
Color space : YUV
Chroma subsampling : 4:2:0
Bit depth : 8 bits
Scan type : Progressive
Bits/(Pixel*Frame) : 0.296
Stream size : 3.30 GiB (72%)
Writing library : x264 core 148 r2665 a01e339
Encoding settings : cabac=1 / ref=5 / deblock=1:1:1 / analyse=0x3:0x133 / me=umh / subme=8 / psy=1 / psy_rd=1.00:0.00 / mixed_ref=1 / me_range=16 / chroma_me=1 / trellis=1 / 8x8dct=1 / cqm=0 / deadzone=21,11 / fast_pskip=0 / chroma_qp_offset=-2 / threads=12 / lookahead_threads=2 / sliced_threads=0 / nr=0 / decimate=1 / interlaced=0 / bluray_compat=0 / constrained_intra=0 / bframes=3 / b_pyramid=2 / b_adapt=2 / b_bias=0 / direct=3 / weightb=1 / open_gop=0 / weightp=2 / keyint=250 / keyint_min=25 / scenecut=40 / intra_refresh=0 / rc_lookahead=50 / rc=2pass / mbtree=1 / bitrate=5727 / ratetol=1.0 / qcomp=0.60 / qpmin=0 / qpmax=69 / qpstep=4 / cplxblur=20.0 / qblur=0.5 / ip_ratio=1.40 / aq=1:1.00
Language : English
Default : Yes
Forced : No

Audio #1
ID : 2
Format : MPEG Audio
Format version : Version 1
Format profile : Layer 3
Mode : Joint stereo
Codec ID : A_MPEG/L3
Codec ID/Hint : MP3
Duration : 1h 32mn
Bit rate mode : Constant
Bit rate : 320 Kbps
Channel(s) : 2 channels
Sampling rate : 48.0 KHz
Compression mode : Lossy
Stream size : 212 MiB (5%)
Writing library : LAME3.99r
Encoding settings : -m j -V 4 -q 2 -lowpass 20.5
Language : Russian
Default : Yes
Forced : Yes

Audio #2
ID : 3
Format : DTS
Format/Info : Digital Theater Systems
Mode : 16
Format settings, Endianness : Big
Codec ID : A_DTS
Duration : 1h 32mn
Bit rate mode : Constant
Bit rate : 1 509 Kbps
Channel(s) : 6 channels
Channel positions : Front: L C R, Side: L R, LFE
Sampling rate : 48.0 KHz
Bit depth : 24 bits
Compression mode : Lossy
Stream size : 1 002 MiB (21%)
Language : English
Default : No
Forced : No

Menu
00:00:00.000 : en:00:00:00.000
00:08:03.520 : en:00:08:03.520
00:13:00.120 : en:00:13:00.120
00:20:56.080 : en:00:20:56.080
00:28:13.560 : en:00:28:13.560
00:34:23.160 : en:00:34:23.160
00:40:06.200 : en:00:40:06.200
00:49:21.640 : en:00:49:21.640
00:57:02.720 : en:00:57:02.720
01:04:07.400 : en:01:04:07.400
01:10:33.320 : en:01:10:33.320
01:15:48.080 : en:01:15:48.080


_________________
Проголосуй за трекер Открытый торрент трекер - RUS-MEDIA.ORG

Проголосуй Открытый торрент трекер - RUS-MEDIA.ORG



реклама партнёра


Вернуться к началу
 Профиль Отправить личное сообщение  
 
   Похожие торренты   Автор   Торрент   Размер 
В этой теме нет новых непрочитанных сообщений. Незваные гости / Shut In [Триллер, Ужасы, Драма, 2015] BDRip, Dvo

salma3

4 | 1

1.46 ГБ

В этой теме нет новых непрочитанных сообщений. Незваные гости / Shut In [Ужасы, триллер, драма, 2015] WEB-DLRip, dvo

Dracon

253 | 10

1.4 ГБ

В этой теме нет новых непрочитанных сообщений. Незваные / The Uninvited [ужасы, триллер, драма, детектив, 2009] BDRip-AVC, Dub

salma3

388 | 105

1.46 ГБ

В этой теме нет новых непрочитанных сообщений. Незваные / The Uninvited [ужасы, триллер, драма, детектив, 2009] BDRip 1080p, Dub+Sub

salma3

73 | 19

5.76 ГБ

В этой теме нет новых непрочитанных сообщений. Взаперти / Shut In [триллер, драма, 2016] BDRip 720p, Mvo

salma3

231 | 63

3.83 ГБ

В этой теме нет новых непрочитанных сообщений. Кукла / The Boy [Ужасы, триллер, драма, 2015] BDRip 720p, Avo

salma3

291 | 31

5.76 ГБ

В этой теме нет новых непрочитанных сообщений. Ясновидец / Shut Eye [S01] [Триллер, драма, 2016] WEBRip 720p, Mvo [Jaskier]

salma3

152 | 142

7.45 ГБ


Начать новую тему Ответить на тему  [ 1 сообщение ] 




Для Мосгорсуда, Роскомнадзора и рекламодателей:: mosgorsud-torrent[собачка]yandex.ru