Торрент файл
скачать торрент магнет ссылка Добавлен: 20 апр 2016, 12:13
Размер: 4.16 ГБ
Сидеров: 244
Личеров: 99
Автор

СообщениеДобавлено: 20 апр 2016, 12:13 

В сети
Супермодератор
Аватара пользователя
Дата регистрации:
15 фев 2012, 16:44
Возраст: 28
Спасибо: 7224 / 2147
Сообщения: 68128
Страна: Гонконг
Производство: Milestone Pictures, John Woo Film Production, Golden Princess Film Production Limited
Год выпуска: 1991
Жанр: боевик, триллер, комедия, криминал
Продолжительность: 01:48:03
Режиссер: Джон Ву
Авторы сценария: Джон Ву, Джанет Чан, Клифтон Ко
В ролях: Чоу Юнь-Фат, Лесли Чун, Чери Чунг, Кон Чу, Кеннет Цан, Дэвид Ву, Фанг Ву, Пьер-Ив Бертон
Описание: Джим, Джо и Чери вместе росли и вместе учились воровать. Теперь они уже не какие-то мелкие карманники, а профессионалы самого высокого класса, виртуозы воровского искусства, специализирующиеся на краже картин. Красавица Чери уговаривает друзей завязать и начать спокойную жизнь. Они обещают ей, что идут на последнее дело, чтобы хорошенько заработать, но удачливые до этого момента преступники попадают в засаду…



Перевод: Профессиональный (многоголосый, закадровый)
Субтитры: русские

Качество: BDRip 720p
Формат: МКV
Видео кодек: AVC
Аудио кодек: АС3
Видео: 1280x676 (1.893), 23.976 fps, MPEG-4 AVC ~4 491 kbps, 0.216 bit/pixel
Аудио №1: 48.0 kHz, AC3 Dolby Digital, 3/2 (L,C,R,l,r) + LFE ch, ~384 kbps | RUS
Аудио №2: 48.0 kHz, AC3 Dolby Digital, 3/2 (L,C,R,l,r) + LFE ch, ~640 kbps | CHI
Формат субтитров: UTF-8 Plain Text
Дата премьеры (мир): 2 февраля 1991
General
Complete name : Once.A.Thief.1991.720p.BDRip.Rus.Chi.mkv
Format : Matroska
File size : 4.16 GiB
Duration : 1h 48mn
Overall bit rate : 5 516 Kbps
Encoded date : UTC 2010-10-19 15:26:08
Writing application : mkvmerge v2.9.8 ('C'est le bon') built on Aug 13 2009 12:49:06
Writing library : libebml v0.7.7 + libmatroska v0.8.1
Video #1
ID : 1
Format : AVC
Format/Info : Advanced Video Codec
Format profile : High@L4.1
Format settings, CABAC : Yes
Format settings, ReFrames : 8 frames
Format settings, GOP : M=1, N=32
Muxing mode : Container profile=Unknown@4.1
Codec ID : V_MPEG4/ISO/AVC
Duration : 1h 48mn
Bit rate : 4 491 Kbps
Width : 1 280 pixels
Height : 676 pixels
Display aspect ratio : 1.893
Frame rate : 23.976 fps
Color space : YUV
Chroma subsampling : 4:2:0
Bit depth : 8 bits
Scan type : Progressive
Bits/(Pixel*Frame) : 0.216
Stream size : 3.31 GiB (79%)
Writing library : x264 core 102 r1666 d058f37
Encoding settings : cabac=1 / ref=8 / deblock=1:-3:-3 / analyse=0x3:0x113 / me=umh / subme=9 / psy=1 / psy_rd=1.05:0.00 / mixed_ref=1 / me_range=32 / chroma_me=1 / trellis=2 / 8x8dct=1 / cqm=2 / deadzone=21,11 / fast_pskip=0 / chroma_qp_offset=-1 / threads=12 / sliced_threads=0 / nr=0 / decimate=1 / interlaced=0 / constrained_intra=0 / bframes=6 / b_pyramid=2 / b_adapt=2 / b_bias=0 / direct=3 / weightb=1 / open_gop=0 / weightp=2 / keyint=250 / keyint_min=25 / scenecut=40 / intra_refresh=0 / rc_lookahead=50 / rc=2pass / mbtree=1 / bitrate=4491 / ratetol=1.0 / qcomp=0.60 / qpmin=10 / qpmax=51 / qpstep=4 / cplxblur=20.0 / qblur=0.5 / vbv_maxrate=50000 / vbv_bufsize=50000 / ip_ratio=1.40 / aq=1:1.00 / nal_hrd=none
Language : English
Audio #2
ID : 2
Format : AC-3
Format/Info : Audio Coding 3
Mode extension : CM (complete main)
Codec ID : A_AC3
Duration : 1h 48mn
Bit rate mode : Constant
Bit rate : 384 Kbps
Channel(s) : 6 channels
Channel positions : Front: L C R, Side: L R, LFE
Sampling rate : 48.0 KHz
Bit depth : 16 bits
Stream size : 297 MiB (7%)
Title : MVO AC3 5.1 384 kbps
Language : Russian
Audio #3
ID : 3
Format : AC-3
Format/Info : Audio Coding 3
Mode extension : CM (complete main)
Codec ID : A_AC3
Duration : 1h 48mn
Bit rate mode : Constant
Bit rate : 640 Kbps
Channel(s) : 6 channels
Channel positions : Front: L C R, Side: L R, LFE
Sampling rate : 48.0 KHz
Bit depth : 16 bits
Stream size : 495 MiB (12%)
Title : Cantonese DD5.1 640k
Language : Chinese
Text #4
ID : 4
Format : UTF-8
Codec ID : S_TEXT/UTF8
Codec ID/Info : UTF-8 Plain Text
Language : Russian



_________________
Проголосуй за трекер Открытый торрент трекер - RUS-MEDIA.ORG

Проголосуй Открытый торрент трекер - RUS-MEDIA.ORG


Вернуться к началу
 Профиль Отправить личное сообщение  
 
   Похожие торренты   Автор   Торрент   Размер 
В этой теме нет новых непрочитанных сообщений. Напролом / The Hard Way [Боевик, комедия, криминал, 1991] BDRip 720p, Dub

salma3

0 | 0

7.74 ГБ

В этой теме нет новых непрочитанных сообщений. Напролом / The Hard Way [боевик, комедия, криминал, 1991] BDRip 720p, Dub+Mvo+Avo+Sub

salma3

9 | 2

5.52 ГБ

В этой теме нет новых непрочитанных сообщений. Во имя справедливости / Out For Justice [Боевик, триллер, драма, криминал, 1991] BDRip 720p, Dub+Dvo+Mvo+Avo

salma3

16 | 8

5.5 ГБ

В этой теме нет новых непрочитанных сообщений. Последний бойскаут / The Last Boy Scout [Боевик, триллер, комедия, 1991] BDRip 720p, Dub

salma3

0 | 0

7.75 ГБ

В этой теме нет новых непрочитанных сообщений. Голый пистолет 2 1/2: Запах страха / The Naked Gun 2 1/2: The Smell of Fear [Боевик, комедия, криминал, 1991] BDRip 720p, Mvo

salma3

6 | 5

6.07 ГБ

В этой теме нет новых непрочитанных сообщений. Последний бойскаут / The Last Boy Scout [Боевик, триллер, комедия, 1991] BDRip 720p, 3Avo+Sub

salma3

55 | 9

7.38 ГБ

В этой теме нет новых непрочитанных сообщений. Билли Батгейт / Billy Bathgate [Боевик, драма, криминал, 1991] BDRip 720p, Dub

salma3

0 | 0

5.22 ГБ


Начать новую тему Ответить на тему  [ 1 сообщение ] 




Для Мосгорсуда, Роскомнадзора и рекламодателей:: mosgorsud-torrent[собачка]yandex.ru
cron