Торрент файл
скачать торрент магнет ссылка Добавлен: 20 апр 2016, 12:02
Размер: 12.1 ГБ
Сидеров: 8
Личеров: 1
Автор

СообщениеДобавлено: 20 апр 2016, 12:02 

Не в сети
Супермодератор
Аватара пользователя
Дата регистрации:
15 фев 2012, 16:44
Возраст: 28
Спасибо: 6659 / 2146
Сообщения: 46021
Год выхода: 1984
Жанр: Боевик, приключения
Режиссер: Стивен Спилберг

В ролях: Харрисон Форд, Кейт Кэпшоу, Джонатан Ке Кван, Амриш Пури, Рошан Сет, Филип Стоун, Рой Чяо, Дэвид Ип, Рик Янг, Цзю Чуака, Рекс Нгуи, Филип Тан, Дэн Эйкройд, Майкл Яма, Д.Р. Нанаяккара, Дармадаса Куруппу, Стани Де Силва, Руби Де Мэл, Ди.М. Динуэйк, Ирангэни Серасинг, Даршана Панангала, Радж Синх

О фильме:
Вторая часть невероятных похождений прославленного археолога и искателя приключений Индианы Джонса. В этот раз бесстрашный доктор Джонс совершит путешествие в сердце Гималаев вместе с ресторанной певичкой Уилли Скотт и своим верным маленьким помощником Коротышкой. Здесь, среди величественных гор, археологу и его спутникам предстоит столкнуться кровавым культом поклонения древней Богине Смерти — Кали. Станет ли Индиана следующим несчастным, погибшим на жутком алтаре человеческих жертвоприношений, или ему, как всегда, удастся вырваться из цепких лап страха и разобраться со злодеями.



Страна: США, Lucasfilm Ltd., Paramount Pictures
Продолжительность: 01:58:28
Перевод 01: Профессиональный (многоголосый закадровый) Киномания
Перевод 02: Профессиональный (многоголосый закадровый) Карусель
Перевод 03: Профессиональный (многоголосый закадровый) DVD/FVD
Перевод 04: Авторский (одноголосый закадровый) Гаврилов (поздний)
Перевод 05: Авторский (одноголосый закадровый) Живов
Перевод 06: Профессиональный (двухголосый закадровый) Гланц
Перевод 07: Авторский (одноголосый закадровый) Жучков
Перевод 08: Профессиональный (многоголосый закадровый) НТВ+
Перевод 09: Авторский (одноголосый закадровый) Михалев
Перевод 10: Профессиональный (многоголосый закадровый) Премьер-видео
Перевод 11: Профессиональный (многоголосый закадровый) R5
Перевод 12: Профессиональный (многоголосый закадровый) ТНТ
Перевод 13: Авторский (одноголосый закадровый) Визгунов
Перевод 14: Авторский (одноголосый закадровый) Гаврилов (ранний)
Перевод 15: Авторский (одноголосый закадровый) Толбин
Перевод 16: Профессиональный (дублированный) ICTV (украинский)

Файл
Кодек: x264
Качество: BDRip 720p
Видео: 8794 Кбит/с, 1280x544, 23.976 кадр/с
Звук: Русский, украинский (AC3, 2 ch, 192 Кбит/с), русский, английский (AC3, 6 ch, 448 Кбит/с)
Субтитры: Russian, English
Общее
Уникальный идентификатор : 192849427280002233451697998226391270550 (0x911572DC6844D02DABC9BBA398B38496)
Полное имя : Indiana.Jones.and.the.Temple.of.Doom.1984.x264.BDRip.720p.mkv
Формат : Matroska
Версия формата : Version 4 / Version 2
Размер файла : 12,1 Гбайт
Продолжительность : 1 ч. 58 м.
Общий поток : 14,6 Мбит/сек
Название фильма : Created by DeathN2
Дата кодирования : UTC 2016-04-19 17:34:08
Программа кодирования : mkvmerge v6.9.1 ('Blue Panther') 32bit built on Apr 18 2014 18:15:44
Библиотека кодирования : libebml v1.3.0 + libmatroska v1.4.1
Видео
Идентификатор : 1
Формат : AVC
Формат/Информация : Advanced Video Codec
Профиль формата : High@L4.1
Параметр CABAC формата : Да
Параметр ReFrames формата : 12 кадров
Идентификатор кодека : V_MPEG4/ISO/AVC
Продолжительность : 1 ч. 58 м.
Битрейт : 8794 Кбит/сек
Ширина : 1280 пикселей
Высота : 544 пикселя
Соотношение сторон : 2,35:1
Режим частоты кадров : Постоянный
Частота кадров : 23,976 кадра/сек
Цветовое пространство : YUV
Субдискретизация насыщенности : 4:2:0
Битовая глубина : 8 бит
Тип развёртки : Прогрессивная
Бит/(Пиксели*Кадры) : 0.527
Размер потока : 7,04 Гбайт (58%)
Заголовок : CHD
Библиотека кодирования : x264 core 125 r2208 d9d2288
Настройки программы : cabac=1 / ref=12 / deblock=1:-3:-3 / analyse=0x3:0x113 / me=umh / subme=10 / psy=1 / psy_rd=1.10:0.15 / mixed_ref=1 / me_range=32 / chroma_me=1 / trellis=2 / 8x8dct=1 / cqm=0 / deadzone=21,11 / fast_pskip=0 / chroma_qp_offset=-2 / threads=12 / lookahead_threads=2 / sliced_threads=0 / nr=0 / decimate=1 / interlaced=0 / bluray_compat=0 / constrained_intra=0 / bframes=6 / b_pyramid=2 / b_adapt=2 / b_bias=0 / direct=3 / weightb=1 / open_gop=0 / weightp=2 / keyint=250 / keyint_min=23 / scenecut=40 / intra_refresh=0 / rc_lookahead=60 / rc=2pass / mbtree=0 / bitrate=8794 / ratetol=1.0 / qcomp=0.60 / qpmin=0 / qpmax=69 / qpstep=4 / cplxblur=20.0 / qblur=0.5 / vbv_maxrate=40000 / vbv_bufsize=30000 / nal_hrd=none / ip_ratio=1.40 / pb_ratio=1.30 / aq=1:0.80
Язык : English
Default : Да
Forced : Нет
Аудио #1
Идентификатор : 2
Формат : AC-3
Формат/Информация : Audio Coding 3
Расширение режима : CM (complete main)
Параметр Endianness формата : Big
Идентификатор кодека : A_AC3
Продолжительность : 1 ч. 58 м.
Вид битрейта : Постоянный
Битрейт : 448 Кбит/сек
Каналы : 6 каналов
Расположение каналов : Front: L C R, Side: L R, LFE
Частота : 48,0 КГц
Частота кадров : 31,250 кадров/сек (1536 spf)
Метод сжатия : С потерями
Размер потока : 380 Мбайт (3%)
Заголовок : MVO Киномания
Язык : Russian
Default : Да
Forced : Нет
Аудио #2
Идентификатор : 3
Формат : AC-3
Формат/Информация : Audio Coding 3
Расширение режима : CM (complete main)
Параметр Endianness формата : Big
Идентификатор кодека : A_AC3
Продолжительность : 1 ч. 58 м.
Вид битрейта : Постоянный
Битрейт : 448 Кбит/сек
Каналы : 6 каналов
Расположение каналов : Front: L C R, Side: L R, LFE
Частота : 48,0 КГц
Частота кадров : 31,250 кадров/сек (1536 spf)
Метод сжатия : С потерями
Размер потока : 380 Мбайт (3%)
Заголовок : MVO Карусель
Язык : Russian
Default : Нет
Forced : Нет
Аудио #3
Идентификатор : 4
Формат : AC-3
Формат/Информация : Audio Coding 3
Расширение режима : CM (complete main)
Параметр Endianness формата : Big
Идентификатор кодека : A_AC3
Продолжительность : 1 ч. 58 м.
Вид битрейта : Постоянный
Битрейт : 448 Кбит/сек
Каналы : 6 каналов
Расположение каналов : Front: L C R, Side: L R, LFE
Частота : 48,0 КГц
Частота кадров : 31,250 кадров/сек (1536 spf)
Метод сжатия : С потерями
Размер потока : 380 Мбайт (3%)
Заголовок : MVO DVD/FVD
Язык : Russian
Default : Нет
Forced : Нет
Аудио #4
Идентификатор : 5
Формат : AC-3
Формат/Информация : Audio Coding 3
Расширение режима : CM (complete main)
Параметр Endianness формата : Big
Идентификатор кодека : A_AC3
Продолжительность : 1 ч. 58 м.
Вид битрейта : Постоянный
Битрейт : 448 Кбит/сек
Каналы : 6 каналов
Расположение каналов : Front: L C R, Side: L R, LFE
Частота : 48,0 КГц
Частота кадров : 31,250 кадров/сек (1536 spf)
Метод сжатия : С потерями
Размер потока : 380 Мбайт (3%)
Заголовок : AVO Гаврилов (поздний)
Язык : Russian
Default : Нет
Forced : Нет
Аудио #5
Идентификатор : 6
Формат : AC-3
Формат/Информация : Audio Coding 3
Расширение режима : CM (complete main)
Параметр Endianness формата : Big
Идентификатор кодека : A_AC3
Продолжительность : 1 ч. 58 м.
Вид битрейта : Постоянный
Битрейт : 448 Кбит/сек
Каналы : 6 каналов
Расположение каналов : Front: L C R, Side: L R, LFE
Частота : 48,0 КГц
Частота кадров : 31,250 кадров/сек (1536 spf)
Метод сжатия : С потерями
Размер потока : 380 Мбайт (3%)
Заголовок : AVO Живов
Язык : Russian
Default : Нет
Forced : Нет
Аудио #6
Идентификатор : 7
Формат : AC-3
Формат/Информация : Audio Coding 3
Расширение режима : CM (complete main)
Параметр Endianness формата : Big
Идентификатор кодека : A_AC3
Продолжительность : 1 ч. 58 м.
Вид битрейта : Постоянный
Битрейт : 448 Кбит/сек
Каналы : 6 каналов
Расположение каналов : Front: L C R, Side: L R, LFE
Частота : 48,0 КГц
Частота кадров : 31,250 кадров/сек (1536 spf)
Метод сжатия : С потерями
Размер потока : 380 Мбайт (3%)
Заголовок : DVO Гланц
Язык : Russian
Default : Нет
Forced : Нет
Аудио #7
Идентификатор : 8
Формат : AC-3
Формат/Информация : Audio Coding 3
Расширение режима : CM (complete main)
Параметр Endianness формата : Big
Идентификатор кодека : A_AC3
Продолжительность : 1 ч. 58 м.
Вид битрейта : Постоянный
Битрейт : 448 Кбит/сек
Каналы : 6 каналов
Расположение каналов : Front: L C R, Side: L R, LFE
Частота : 48,0 КГц
Частота кадров : 31,250 кадров/сек (1536 spf)
Метод сжатия : С потерями
Размер потока : 380 Мбайт (3%)
Заголовок : AVO Жучков
Язык : Russian
Default : Нет
Forced : Нет
Аудио #8
Идентификатор : 9
Формат : AC-3
Формат/Информация : Audio Coding 3
Расширение режима : CM (complete main)
Параметр Endianness формата : Big
Идентификатор кодека : A_AC3
Продолжительность : 1 ч. 58 м.
Вид битрейта : Постоянный
Битрейт : 448 Кбит/сек
Каналы : 6 каналов
Расположение каналов : Front: L C R, Side: L R, LFE
Частота : 48,0 КГц
Частота кадров : 31,250 кадров/сек (1536 spf)
Метод сжатия : С потерями
Размер потока : 380 Мбайт (3%)
Заголовок : AVO Михалев
Язык : Russian
Default : Нет
Forced : Нет
Аудио #9
Идентификатор : 10
Формат : AC-3
Формат/Информация : Audio Coding 3
Расширение режима : CM (complete main)
Параметр Endianness формата : Big
Идентификатор кодека : A_AC3
Продолжительность : 1 ч. 58 м.
Вид битрейта : Постоянный
Битрейт : 448 Кбит/сек
Каналы : 6 каналов
Расположение каналов : Front: L C R, Side: L R, LFE
Частота : 48,0 КГц
Частота кадров : 31,250 кадров/сек (1536 spf)
Метод сжатия : С потерями
Размер потока : 380 Мбайт (3%)
Заголовок : MVO НТВ+
Язык : Russian
Default : Нет
Forced : Нет
Аудио #10
Идентификатор : 11
Формат : AC-3
Формат/Информация : Audio Coding 3
Расширение режима : CM (complete main)
Параметр Endianness формата : Big
Идентификатор кодека : A_AC3
Продолжительность : 1 ч. 58 м.
Вид битрейта : Постоянный
Битрейт : 192 Кбит/сек
Каналы : 2 канала
Расположение каналов : Front: L R
Частота : 48,0 КГц
Частота кадров : 31,250 кадров/сек (1536 spf)
Метод сжатия : С потерями
Размер потока : 163 Мбайт (1%)
Заголовок : MVO Премьер-видео
Язык : Russian
Default : Нет
Forced : Нет
Аудио #11
Идентификатор : 12
Формат : AC-3
Формат/Информация : Audio Coding 3
Расширение режима : CM (complete main)
Параметр Endianness формата : Big
Идентификатор кодека : A_AC3
Продолжительность : 1 ч. 58 м.
Вид битрейта : Постоянный
Битрейт : 192 Кбит/сек
Каналы : 2 канала
Расположение каналов : Front: L R
Частота : 48,0 КГц
Частота кадров : 31,250 кадров/сек (1536 spf)
Метод сжатия : С потерями
Размер потока : 163 Мбайт (1%)
Заголовок : MVO R5
Язык : Russian
Default : Нет
Forced : Нет
Аудио #12
Идентификатор : 13
Формат : AC-3
Формат/Информация : Audio Coding 3
Расширение режима : CM (complete main)
Параметр Endianness формата : Big
Идентификатор кодека : A_AC3
Продолжительность : 1 ч. 58 м.
Вид битрейта : Постоянный
Битрейт : 192 Кбит/сек
Каналы : 2 канала
Расположение каналов : Front: L R
Частота : 48,0 КГц
Частота кадров : 31,250 кадров/сек (1536 spf)
Метод сжатия : С потерями
Размер потока : 163 Мбайт (1%)
Заголовок : MVO ТНТ
Язык : Russian
Default : Нет
Forced : Нет
Аудио #13
Идентификатор : 14
Формат : AC-3
Формат/Информация : Audio Coding 3
Расширение режима : CM (complete main)
Параметр Endianness формата : Big
Идентификатор кодека : A_AC3
Продолжительность : 1 ч. 58 м.
Вид битрейта : Постоянный
Битрейт : 192 Кбит/сек
Каналы : 2 канала
Расположение каналов : Front: L R
Частота : 48,0 КГц
Частота кадров : 31,250 кадров/сек (1536 spf)
Метод сжатия : С потерями
Размер потока : 163 Мбайт (1%)
Заголовок : AVO Визгунов
Язык : Russian
Default : Нет
Forced : Нет
Аудио #14
Идентификатор : 15
Формат : AC-3
Формат/Информация : Audio Coding 3
Расширение режима : CM (complete main)
Параметр Endianness формата : Big
Идентификатор кодека : A_AC3
Продолжительность : 1 ч. 58 м.
Вид битрейта : Постоянный
Битрейт : 192 Кбит/сек
Каналы : 2 канала
Расположение каналов : Front: L R
Частота : 48,0 КГц
Частота кадров : 31,250 кадров/сек (1536 spf)
Метод сжатия : С потерями
Размер потока : 163 Мбайт (1%)
Заголовок : AVO Гаврилов (ранний)
Язык : Russian
Default : Нет
Forced : Нет
Аудио #15
Идентификатор : 16
Формат : AC-3
Формат/Информация : Audio Coding 3
Расширение режима : CM (complete main)
Параметр Endianness формата : Big
Идентификатор кодека : A_AC3
Продолжительность : 1 ч. 58 м.
Вид битрейта : Постоянный
Битрейт : 192 Кбит/сек
Каналы : 2 канала
Расположение каналов : Front: L R
Частота : 48,0 КГц
Частота кадров : 31,250 кадров/сек (1536 spf)
Метод сжатия : С потерями
Размер потока : 163 Мбайт (1%)
Заголовок : AVO Толбин
Язык : Russian
Default : Нет
Forced : Нет
Аудио #16
Идентификатор : 17
Формат : AC-3
Формат/Информация : Audio Coding 3
Расширение режима : CM (complete main)
Параметр Endianness формата : Big
Идентификатор кодека : A_AC3
Продолжительность : 1 ч. 58 м.
Вид битрейта : Постоянный
Битрейт : 192 Кбит/сек
Каналы : 2 канала
Расположение каналов : Front: L R
Частота : 48,0 КГц
Частота кадров : 31,250 кадров/сек (1536 spf)
Метод сжатия : С потерями
Размер потока : 163 Мбайт (1%)
Заголовок : DUB ICTV
Язык : Ukrainian
Default : Нет
Forced : Нет
Аудио #17
Идентификатор : 18
Формат : AC-3
Формат/Информация : Audio Coding 3
Расширение режима : CM (complete main)
Параметр Endianness формата : Big
Идентификатор кодека : A_AC3
Продолжительность : 1 ч. 58 м.
Вид битрейта : Постоянный
Битрейт : 448 Кбит/сек
Каналы : 6 каналов
Расположение каналов : Front: L C R, Side: L R, LFE
Частота : 48,0 КГц
Частота кадров : 31,250 кадров/сек (1536 spf)
Метод сжатия : С потерями
Размер потока : 380 Мбайт (3%)
Язык : English
Default : Нет
Forced : Нет
Текст #1
Идентификатор : 19
Формат : UTF-8
Идентификатор кодека : S_TEXT/UTF8
Идентификатор кодека/Информация : UTF-8 Plain Text
Язык : Russian
Default : Нет
Forced : Нет
Текст #2
Идентификатор : 20
Формат : UTF-8
Идентификатор кодека : S_TEXT/UTF8
Идентификатор кодека/Информация : UTF-8 Plain Text
Язык : English
Default : Нет
Forced : Нет
Текст #3
Идентификатор : 21
Формат : UTF-8
Идентификатор кодека : S_TEXT/UTF8
Идентификатор кодека/Информация : UTF-8 Plain Text
Заголовок : SDH
Язык : English
Default : Нет
Forced : Нет
Меню
00:00:00.000 : en:Chapter 01
00:02:54.048 : en:Chapter 02
00:08:07.278 : en:Chapter 03
00:10:52.734 : en:Chapter 04
00:12:51.479 : en:Chapter 05
00:16:00.542 : en:Chapter 06
00:19:50.189 : en:Chapter 07
00:26:28.670 : en:Chapter 08
00:28:42.971 : en:Chapter 09
00:31:49.032 : en:Chapter 10
00:35:21.160 : en:Chapter 11
00:38:57.001 : en:Chapter 12
00:41:20.518 : en:Chapter 13
00:46:24.323 : en:Chapter 14
00:50:42.956 : en:Chapter 15
00:52:06.581 : en:Chapter 16
00:56:08.364 : en:Chapter 17
00:59:57.218 : en:Chapter 18
01:05:57.078 : en:Chapter 19
01:09:52.021 : en:Chapter 20
01:13:08.550 : en:Chapter 21
01:17:08.290 : en:Chapter 22
01:24:01.953 : en:Chapter 23
01:27:33.331 : en:Chapter 24
01:29:21.104 : en:Chapter 25
01:35:03.447 : en:Chapter 26
01:39:23.874 : en:Chapter 27
01:41:51.271 : en:Chapter 28
01:43:38.795 : en:Chapter 29
01:49:57.966 : en:Chapter 30
01:53:10.909 : en:Chapter 31
01:58:27.975 : en:Chapter 32


_________________
Проголосуй за трекер Открытый торрент трекер - RUS-MEDIA.ORG

Проголосуй Открытый торрент трекер - RUS-MEDIA.ORG



реклама партнёра


Вернуться к началу
 Профиль Отправить личное сообщение  
 
   Похожие торренты   Автор   Торрент   Размер 
В этой теме нет новых непрочитанных сообщений. Храм / Temple [ужасы, триллер, 2017] WEBDLRip, Dvo

salma3

587 | 94

1.37 ГБ

В этой теме нет новых непрочитанных сообщений. Бриджит Джонс 3 / Bridget Jones's Baby [мелодрама, комедия, 2016] BDRip 720p, Dub+Sub [Лицензия]

salma3

149 | 59

7.05 ГБ

В этой теме нет новых непрочитанных сообщений. Бриджит Джонс 3 / Bridget Jones's Baby [мелодрама, комедия, 2016] BDRip 720p, Dub [iPad] [Лицензия]

salma3

45 | 15

2.4 ГБ

В этой теме нет новых непрочитанных сообщений. Джессика Джонс / Jessica Jones [01х01-06 из 13] (С.Дж. Кларксон, Дэвид Петрарка, Стивен Серджи) [2015, Фантастика, боевик, драма, криминал, WEBRip 720p | NewStudio]

Dracon

195 | 116

7.81 ГБ

В этой теме нет новых непрочитанных сообщений. Джессика Джонс / Jessica Jones [01х01-13 из 13] (С.Дж. Кларксон, Дэвид Петрарка, Стивен Серджи) [2015, Фантастика, боевик, драма, криминал, WEBRip 720p | NewStudio]

Dracon

4 | 8

17.53 ГБ

В этой теме нет новых непрочитанных сообщений. Джессика Джонс / Jessica Jones [01х01-06 из 13] (С.Дж. Кларксон, Дэвид Петрарка, Стивен Серджик) [2015, фантастика, боевик, драма, криминал, WEBRip 720p | SunshineStudio]

Dracon

7 | 11

3.29 ГБ

В этой теме нет новых непрочитанных сообщений. Джессика Джонс / Jessica Jones [01х01-06 из 13] (Эндрю Бернштейн, Дэниэл Эттиэс, Колин Бакси) [Боевик, Драма, Криминал, Фантастика, 2015] WEBRip 720p [IdeaFilm]

Dracon

16 | 11

9.07 ГБ


Начать новую тему Ответить на тему  [ 1 сообщение ] 




Для Мосгорсуда, Роскомнадзора и рекламодателей:: mosgorsud-torrent[собачка]yandex.ru