Торрент файл
скачать торрент магнет ссылка Добавлен: 18 апр 2016, 13:11
Размер: 4.66 ГБ
Сидеров: 2
Личеров: 2
Автор

СообщениеДобавлено: 18 апр 2016, 13:11 

В сети
Супермодератор
Аватара пользователя
Дата регистрации:
15 фев 2012, 16:44
Возраст: 29
Спасибо: 7377 / 2147
Сообщения: 75727
Мой научный проект / My Science Project

Перевод: Профессиональный (многоголосый, закадровый)
Субтитры: Отсутствуют
Формат: BDRip, MKV, H.264, AC3
Страна: США
Режиссер: Джонатан Р. Бетуэл
Жанр: фантастика, боевик, комедия, приключения
Продолжительность: 01:34:43
Год выпуска: 1985

В ролях: Джон Стокуэлл, Даниэль фон Цернек, Фишер Стивенс, Рафаэль Сбардж, Ричард Мейсер, Бэрри Корбин, Энн Уэджуорт, Деннис Хоппер, Кендес Сильверс, Бо Дреманн

Описание: Майкл Харлан — юный лоботряс, которому поручено сделать в школе научный доклад. И герой не находит ничего лучшего, как в поисках какой-нибудь диковины, способной стать темой его выступления, забраться на заброшенную свалку министерства обороны. Что ж, кто ищет, тот всегда найдет. Особенно, когда речь идет о неприятностях.
Майкл набредает на странную штуку, оказывающуюся… инопланетной машиной времени! Только идиоты в погонах могли выкинуть такое сокровище. И только такой незадачливый чудик, как Майкл, мог ненароком запустить этот фантастический агрегат. Перед ним и его однокашниками открывается настолько же заманчивая, насколько и опасная перспектива многочисленных приключений в коридорах времени…


Рейтинг на IMDb: 6.0/10
Рейтинг на КиноПоиск.Ru: отсутствует
Рейтинг MPAA: PG

Видео: 1280x544p (2.35:1), 23.976 fps, MPEG-4 AVC (х264), ~6400 kbps avg, 0.383 bit/pixel
Аудио#1: Русский 48 kHz, AC3, 2 ch, ~ 192.00 kbps [Профессиональный (многоголосый, закадровый)]
Аудио#2: Английский48 kHz, AC3, 2 ch, ~ 448.00 kbps [Внешним файлом: Оригинал]


Автор РИПа:
Исходник: BD-Remux 1080p
Общее
Уникальный идентификатор : 241247477058529941562519597640549045327 (0xB57E92F227A349C6B50C390B63B6944F)
Полное имя : \\Fen_3\f\Downloads\My_Science_Project_[tfile.ru]\My_Science_Project_[tfile.ru].mkv
Формат : Matroska
Версия формата : Version 4 / Version 2
Размер файла : 4,36 Гбайт
Продолжительность : 1 ч. 34 м.
Общий поток : 6593 Кбит/сек
Название фильма : MY SCIENCE PROJECT
Дата кодирования : UTC 2016-04-12 11:18:03
Программа кодирования : mkvmerge v8.6.1 ('Flying') 64bit
Библиотека кодирования : libebml v1.3.3 + libmatroska v1.4.4
DURATION : 01:34:43.840000000
NUMBER_OF_FRAMES : 177620
NUMBER_OF_BYTES : 136412160
_STATISTICS_WRITING_APP : mkvmerge v8.6.1 ('Flying') 64bit
_STATISTICS_WRITING_DATE_UTC : 2016-04-12 11:18:03
_STATISTICS_TAGS : BPS DURATION NUMBER_OF_FRAMES NUMBER_OF_BYTES

Видео
Идентификатор : 1
Формат : AVC
Формат/Информация : Advanced Video Codec
Профиль формата :
Параметр CABAC формата : Да
Параметр ReFrames формата : 9 кадров
Идентификатор кодека : V_MPEG4/ISO/AVC
Продолжительность : 1 ч. 34 м.
Битрейт : 6400 Кбит/сек
Ширина : 1280 пикселей
Высота : 544 пикселя
Соотношение сторон : 2,35:1
Режим частоты кадров : Постоянный
Частота кадров : 23,976 кадра/сек
Цветовое пространство : YUV
Субдискретизация насыщенности : 4:2:0
Битовая глубина : 8 бит
Тип развёртки : Прогрессивная
Бит/(Пиксели*Кадры) : 0.383
Размер потока : 4,15 Гбайт (95%)
Заголовок : My Science Project
Библиотека кодирования : x264 core 148 r2665
Настройки программы : cabac=1 / ref=9 / deblock=1:-1:-1 / analyse=0x3:0x133 / me=umh / subme=11 / psy=1 / psy_rd=1.00:0.00 / mixed_ref=0 / me_range=16 / chroma_me=1 / trellis=2 / 8x8dct=1 / cqm=0 / deadzone=21,11 / fast_pskip=0 / chroma_qp_offset=-2 / threads=6 / lookahead_threads=1 / sliced_threads=0 / nr=0 / decimate=1 / interlaced=0 / bluray_compat=0 / constrained_intra=0 / bframes=9 / b_pyramid=2 / b_adapt=2 / b_bias=0 / direct=3 / weightb=1 / open_gop=0 / weightp=2 / keyint=239 / keyint_min=23 / scenecut=40 / intra_refresh=0 / rc_lookahead=30 / rc=2pass / mbtree=1 / bitrate=6400 / ratetol=1.0 / qcomp=0.60 / qpmin=1 / qpmax=69 / qpstep=4 / cplxblur=20.0 / qblur=0.5 / vbv_maxrate=24000 / vbv_bufsize=24000 / nal_hrd=none / filler=0 / ip_ratio=1.40 / aq=3:1.00
Язык : English
Default : Да
Forced : Нет

Аудио
Идентификатор : 2
Формат : AC-3
Формат/Информация : Audio Coding 3
Расширение режима : CM (complete main)
Параметр Endianness формата : Big
Идентификатор кодека : A_AC3
Продолжительность : 1 ч. 34 м.
Вид битрейта : Постоянный
Битрейт : 192 Кбит/сек
Каналы : 2 канала
Расположение каналов : Front: L R
Частота : 48,0 КГц
Битовая глубина : 16 бит
Метод сжатия : С потерями
Размер потока : 130 Мбайт (3%)
Заголовок : MVO
Язык : Russian
Default : Да
Forced : Нет

Меню
00:00:00.000 : en:00:00:00.000
00:15:27.343 : en:00:15:27.343
00:44:28.332 : en:00:44:28.332
01:08:12.213 : en:01:08:12.213
01:30:57.369 : en:01:30:57.369




_________________
Проголосуй за трекер Открытый торрент трекер - RUS-MEDIA.ORG

Проголосуй Открытый торрент трекер - RUS-MEDIA.ORG


Вернуться к началу
 Профиль Отправить личное сообщение  
 
   Похожие торренты   Автор   Торрент   Размер 
В этой теме нет новых непрочитанных сообщений. Мой научный проект / My Science Project [фантастика, боевик, комедия, приключения, 1985] BDRip, Mvo

salma3

23 | 4

1.46 ГБ

В этой теме нет новых непрочитанных сообщений. Междоусобный проект / Смертельный проект / The Internecine Project [Боевик, триллер, 1974] BDRip 1080p, Avo

salma3

74 | 32

5.58 ГБ

В этой теме нет новых непрочитанных сообщений. Манхэттенский проект / The Manhattan Project [фантастика, триллер, 1986] BDRip 720p, Mvo

salma3

6 | 3

7.94 ГБ

В этой теме нет новых непрочитанных сообщений. Проект 12: Бункер / Project 12: The Bunker [фантастика, боевик, триллер, приключения, 2016] DVDRip, Avo

salma3

141 | 53

745.95 МБ

В этой теме нет новых непрочитанных сообщений. Проект 12: Бункер / Project 12: The Bunker (Джейми Фалеро / Jaime Falero) [2016г., Испания, фантастика, боевик, триллер, приключения, WEB-DLRip] VO

Alfredovich

42 | 8

760.22 МБ

В этой теме нет новых непрочитанных сообщений. Проект Флорида / The Florida Project [драма, 2017] BDRip 720p, Mvo

salma3

0 | 0

6.49 ГБ

В этой теме нет новых непрочитанных сообщений. Колосс: Проект Форбина / Colossus: The Forbin Project [фантастика, триллер, 1970] BDRip, Avo

salma3

0 | 0

1.45 ГБ


Начать новую тему Ответить на тему  [ 1 сообщение ] 




Для Мосгорсуда, Роскомнадзора и рекламодателей:: mosgorsud-torrent[собачка]yandex.ru
cron