Торрент файл
скачать торрент магнет ссылка Добавлен: 15 апр 2016, 11:40
Размер: 12.75 ГБ
Сидеров: 50
Личеров: 64
Автор

СообщениеДобавлено: 15 апр 2016, 11:40 

Не в сети
Супермодератор
Аватара пользователя
Дата регистрации:
15 фев 2012, 16:44
Возраст: 28
Спасибо: 7290 / 2147
Сообщения: 70686
Год выпуска: 1985
Страна: США
Жанр: Боевик
Продолжительность: 01:47:40
Перевод: Профессиональный (многоголосый закадровый) 5 канал
Перевод: Профессиональный (многоголосый закадровый) 2х2
Перевод: Авторский (одноголосый закадровый) В.Горчаков
Перевод: Авторский (одноголосый закадровый) А. Гаврилов
Перевод: Авторский (одноголосый закадровый) Ю. Живов
Cубтитры: Английские
Режиссер: Джозеф Зито

В ролях: Чак Норрис, Ричард Линч, Мелисса Профет, Александр Зейл, Алекс Колон, Эдди Джонс, Джон Де Вриз, Джеймс О’Салливан, Билли Драго, Хайме Санчес

Описание: Отставной агент ЦРУ вынужден вернуться в строй после высадки во Флориде советских террористов, грозящей захватом всей страны. Тем более что наконец-то предоставляется возможность уничтожить давнего врага — агента Михаила Ростова. Но и советский шпион тоже хочет поквитаться со своим старым знакомым.



Файл
Качество: BDRip 1080p
Видео: MPEG4 Video (H264), 1920x1040, 23.976fps, 15.1 Mbps
Аудио #1: Русский, Dolby AC3, 48000 Hz, 2ch, 192 kbps - Многоголосый, 5 канал
Аудио #2: Русский, Dolby AC3, 48000 Hz, 2ch, 192 kbps - Двухголосый, 2х2
Аудио #3: Русский, Dolby AC3, 48000 Hz, 6ch, 448 kbps - Одноголосый, В. Горчаков
Аудио #4: Русский, Dolby AC3, 48000 Hz, 2ch, 192 kbps - Одноголосый, А. Гаврилов
Аудио #5: Русский, Dolby AC3, 48000 Hz, 2ch, 192 kbps - Одноголосый, Ю. Живов
Аудио #6: Украинский: Dolby AC3, 48000 Hz, 2ch, 192 kbps - Многоголосый, НТН
Аудио #7: Английский, Dolby AC3, 48000 Hz, 6ch, 448 kbps
Формат субтитров: Softsub (SRT)
Сэмпл
General
Unique ID : 179464001934734928339857110097714675327 (0x870382705547C823B7FA8609B71AFE7F)
Complete name : F:Torrent 21985.Invasion.U.S.A.renta23.mkv
Format : Matroska
Format version : Version 4 / Version 2
File size : 12.7 GiB
Duration : 1h 47mn
Overall bit rate : 16.9 Mbps
Movie name : 1985 Вторжение в США / renta23
Encoded date : UTC 2016-04-01 18:10:54
Writing application : mkvmerge v8.3.0 ('Over the Horizon') 64bit
Writing library : libebml v1.3.1 + libmatroska v1.4.2
Video
ID : 1
Format : AVC
Format/Info : Advanced Video Codec
Format profile : High@L4.1
Format settings, CABAC : Yes
Format settings, ReFrames : 4 frames
Codec ID : V_MPEG4/ISO/AVC
Duration : 1h 47mn
Bit rate : 15.1 Mbps
Width : 1 920 pixels
Height : 1 040 pixels
Display aspect ratio : 1.85:1
Frame rate mode : Constant
Frame rate : 23.976 (24000/1001) fps
Color space : YUV
Chroma subsampling : 4:2:0
Bit depth : 8 bits
Scan type : Progressive
Bits/(Pixel*Frame) : 0.315
Stream size : 11.3 GiB (89%)
Title : 1985 Вторжение в США
Writing library : x264 core 146 r2538 121396c
Encoding settings : cabac=1 / ref=4 / deblock=1:-1:-1 / analyse=0x3:0x133 / me=umh / subme=11 / psy=1 / psy_rd=1.07:0.23 / mixed_ref=1 / me_range=32 / chroma_me=1 / trellis=2 / 8x8dct=1 / cqm=0 / deadzone=21,11 / fast_pskip=0 / chroma_qp_offset=-3 / threads=12 / lookahead_threads=3 / sliced_threads=0 / nr=0 / decimate=1 / interlaced=0 / bluray_compat=0 / constrained_intra=0 / bframes=12 / b_pyramid=2 / b_adapt=2 / b_bias=0 / direct=3 / weightb=1 / open_gop=0 / weightp=2 / keyint=250 / keyint_min=23 / scenecut=40 / intra_refresh=0 / rc=2pass / mbtree=0 / bitrate=15100 / ratetol=1.0 / qcomp=0.60 / qpmin=0 / qpmax=69 / qpstep=4 / cplxblur=20.0 / qblur=0.5 / ip_ratio=1.40 / pb_ratio=1.30 / aq=2:1.00
Language : English
Default : Yes
Forced : No
Audio #1
ID : 2
Format : AC-3
Format/Info : Audio Coding 3
Mode extension : CM (complete main)
Format settings, Endianness : Big
Codec ID : A_AC3
Duration : 1h 47mn
Bit rate mode : Constant
Bit rate : 192 Kbps
Channel(s) : 2 channels
Channel positions : Front: L R
Sampling rate : 48.0 KHz
Frame rate : 31.250 fps (1536 spf)
Compression mode : Lossy
Stream size : 148 MiB (1%)
Title : Многоголосый закадровый, Петербург 5-й канал
Language : Russian
Default : Yes
Forced : No
Audio #2
ID : 3
Format : AC-3
Format/Info : Audio Coding 3
Mode extension : CM (complete main)
Format settings, Endianness : Big
Codec ID : A_AC3
Duration : 1h 47mn
Bit rate mode : Constant
Bit rate : 192 Kbps
Channel(s) : 2 channels
Channel positions : Front: L R
Sampling rate : 48.0 KHz
Frame rate : 31.250 fps (1536 spf)
Compression mode : Lossy
Stream size : 148 MiB (1%)
Title : Многоголосый закадровый, 2х2
Language : Russian
Default : No
Forced : No
Audio #3
ID : 4
Format : AC-3
Format/Info : Audio Coding 3
Mode extension : CM (complete main)
Format settings, Endianness : Big
Codec ID : A_AC3
Duration : 1h 47mn
Bit rate mode : Constant
Bit rate : 448 Kbps
Channel(s) : 6 channels
Channel positions : Front: L C R, Side: L R, LFE
Sampling rate : 48.0 KHz
Frame rate : 31.250 fps (1536 spf)
Compression mode : Lossy
Stream size : 345 MiB (3%)
Title : Одноголосый закадровый, В. Горчаков
Language : Russian
Default : No
Forced : No
Audio #4
ID : 5
Format : AC-3
Format/Info : Audio Coding 3
Mode extension : CM (complete main)
Format settings, Endianness : Big
Codec ID : A_AC3
Duration : 1h 47mn
Bit rate mode : Constant
Bit rate : 192 Kbps
Channel(s) : 2 channels
Channel positions : Front: L R
Sampling rate : 48.0 KHz
Frame rate : 31.250 fps (1536 spf)
Compression mode : Lossy
Stream size : 148 MiB (1%)
Title : Одноголосый закадровый, А. Гаврилов
Language : Russian
Default : No
Forced : No
Audio #5
ID : 6
Format : AC-3
Format/Info : Audio Coding 3
Mode extension : CM (complete main)
Format settings, Endianness : Big
Codec ID : A_AC3
Duration : 1h 47mn
Bit rate mode : Constant
Bit rate : 192 Kbps
Channel(s) : 2 channels
Channel positions : Front: L R
Sampling rate : 48.0 KHz
Frame rate : 31.250 fps (1536 spf)
Compression mode : Lossy
Stream size : 148 MiB (1%)
Title : Одноголосый закадровый, Ю. Живов
Language : Russian
Default : No
Forced : No
Audio #6
ID : 7
Format : AC-3
Format/Info : Audio Coding 3
Mode extension : CM (complete main)
Format settings, Endianness : Big
Codec ID : A_AC3
Duration : 1h 47mn
Bit rate mode : Constant
Bit rate : 192 Kbps
Channel(s) : 2 channels
Channel positions : Front: L R
Sampling rate : 48.0 KHz
Frame rate : 31.250 fps (1536 spf)
Compression mode : Lossy
Stream size : 148 MiB (1%)
Title : Многоголосый закадровый, НТН
Language : Ukrainian
Default : No
Forced : No
Audio #7
ID : 8
Format : AC-3
Format/Info : Audio Coding 3
Mode extension : CM (complete main)
Format settings, Endianness : Big
Codec ID : A_AC3
Duration : 1h 47mn
Bit rate mode : Constant
Bit rate : 448 Kbps
Channel(s) : 6 channels
Channel positions : Front: L C R, Side: L R, LFE
Sampling rate : 48.0 KHz
Frame rate : 31.250 fps (1536 spf)
Compression mode : Lossy
Stream size : 345 MiB (3%)
Language : English
Default : No
Forced : No
Text
ID : 9
Format : UTF-8
Codec ID : S_TEXT/UTF8
Codec ID/Info : UTF-8 Plain Text
Duration : 1h 42mn
Bit rate : 26 bps
Count of elements : 613
Stream size : 19.7 KiB (0%)
Language : English
Default : No
Forced : No
Menu
00:00:00.000 : en:Chapter 01
00:09:08.089 : en:Chapter 02
00:17:57.576 : en:Chapter 03
00:28:06.267 : en:Chapter 04
00:36:40.698 : en:Chapter 05
00:47:41.817 : en:Chapter 06
01:02:12.145 : en:Chapter 07
01:11:11.225 : en:Chapter 08
01:19:16.293 : en:Chapter 09
01:27:35.208 : en:Chapter 10
01:34:08.934 : en:Chapter 11
01:41:30.125 : en:Chapter 12
url=http://fastpic.ru/view/80/2016/0414/018d8f933ad477b4194cc11a19b210dc.png.html][/url]


_________________
Проголосуй за трекер Открытый торрент трекер - RUS-MEDIA.ORG

Проголосуй Открытый торрент трекер - RUS-MEDIA.ORG


Вернуться к началу
 Профиль Отправить личное сообщение  
 
   Похожие торренты   Автор   Торрент   Размер 
В этой теме нет новых непрочитанных сообщений. Вторжение в США / Invasion U.S.A. [Боевик, Триллер, 1985] BDRip-AVC, Mvo

salma3

0 | 0

3.84 ГБ

В этой теме нет новых непрочитанных сообщений. Вторжение в США / Invasion U.S.A. [боевик, триллер, 1985] BDRip 720p, Mvo

salma3

0 | 0

11.79 ГБ

В этой теме нет новых непрочитанных сообщений. Вторжение на Землю (1-8 серии из 8 ) / Invasion Earth [документальный, 2014] IPTVRip, AVO

salma3

8 | 3

4.28 ГБ

В этой теме нет новых непрочитанных сообщений. Вторжение гигантских пауков / The Giant Spider Invasion [ужасы, фантастика, 1975] DVDRip, Avo

salma3

1 | 3

1.46 ГБ

В этой теме нет новых непрочитанных сообщений. Bang Bros Invasion 20 / Публичное Секс Вторжение 20 (Bang Bros Productions) [2017 г., All Sex, Oral, Gonzo, Big Tits, Facial, Threesomes, Big Cocks, DVDRip]

max77777

1 | 0

1.57 ГБ

В этой теме нет новых непрочитанных сообщений. Мои счастливые звезды 2 / Xia ri fu xing [Комедия, боевик, 1985] BDRip 1080p, Mvo

salma3

0 | 3

6.25 ГБ

В этой теме нет новых непрочитанных сообщений. Bang Bros Вторжение 17 / Bang Bros Invasion 17 (2017) DVDRip

salma3

126 | 28

1.48 ГБ


Начать новую тему Ответить на тему  [ 1 сообщение ] 




Для Мосгорсуда, Роскомнадзора и рекламодателей:: mosgorsud-torrent[собачка]yandex.ru
cron