Торрент файл
скачать торрент магнет ссылка Добавлен: 12 апр 2016, 12:28
Размер: 9.79 ГБ
Сидеров: 27
Личеров: 50
Автор

СообщениеДобавлено: 12 апр 2016, 12:28 

В сети
Супермодератор
Аватара пользователя
Дата регистрации:
15 фев 2012, 16:44
Возраст: 27
Спасибо: 6233 / 2126
Сообщения: 33937
Год выпуска: 1979
Страна: США
Жанр: Боевик, триллер
Продолжительность: 01:30:57
Перевод: Профессиональный (многоголосый закадровый) НТВ+
Перевод: Профессиональный (многоголосый закадровый) ОРТ
Перевод: Профессиональный (многоголосый закадровый) СТС
Перевод: Авторский (одноголосый закадровый) Гаврилов
Перевод: Авторский (одноголосый закадровый) Горчаков
Режиссер: Пол Аарон

В ролях: Дженнифер О’Нил, Чак Норрис, Клу Гулагер, Рон О’Нил, Билл Уоллес, Эрик Ланёвилль, Джеймс Уитмор мл., Клинт Ричи, Пепе Серна, Рэй Витте, Тэйлор Лочер, Лиза Джеймс, Чу Чу Малаве, Кевин Гир, Юджин Батлер, Джеймс Холл, Чарльз Сайферс, Аарон Норрис, Рик Прието, Донни Уильямс, Гай Мессенджер, Карен Обедайэр, Дж. У. Бейли

Описание: В маленьком калифорнийском городке орудует банда тоговцев наркотиками. Помогать полицейским в уничтожении мафии начинает чемпион по каратэ Мэт Лонган. У него к бандитам особый счет: один из преступников убил приемного сына и ученика Логана. Теперь этот бандит — противник Мэта на ринге. А вне ринга — это опаснейший враг полицейских, использующий в борьбе запрещенные приемы.



Файл
Качество: BDRip 1080p
Видео: MPEG4 Video (H264), 1920x1080, 23.976fps, 14.0 Mbps
Аудио #1: Русский, Dolby AC3, 48000 Hz, 2ch, 192 kbps - Многоголосый, НТВ+
Аудио #2: Русский, Dolby AC3, 48000 Hz, 2ch, 192 kbps - Многоголосый, OPT
Аудио #3: Русский, Dolby AC3, 48000 Hz, 2ch, 192 kbps - Многоголосый, CTC
Аудио #4: Русский, Dolby AC3, 48000 Hz, 2ch, 192 kbps - Одноголосый, Гаврилов
Аудио #5: Русский, Dolby AC3, 48000 Hz, 2ch, 192 kbps - Одноголосый, Горчаков
Аудио #6: Английский, Dolby AC3, 48000 Hz, 6ch, 448 kbps
Сэмпл
General
Unique ID : 187826973067817787550309460009895906788 (0x8D4E28BFFCBA8C98A52BEE1B19C0CDE4)
Complete name : F:Torrent 21979.Force.of.One.renta23.mkv
Format : Matroska
Format version : Version 4 / Version 2
File size : 9.79 GiB
Duration : 1h 30mn
Overall bit rate : 15.4 Mbps
Movie name : 1979 Сила одиночки / renta23
Encoded date : UTC 2016-04-06 14:27:11
Writing application : mkvmerge v8.3.0 ('Over the Horizon') 64bit
Writing library : libebml v1.3.1 + libmatroska v1.4.2
Video
ID : 1
Format : AVC
Format/Info : Advanced Video Codec
Format profile : High@L4.1
Format settings, CABAC : Yes
Format settings, ReFrames : 4 frames
Codec ID : V_MPEG4/ISO/AVC
Duration : 1h 30mn
Bit rate : 14.0 Mbps
Width : 1 920 pixels
Height : 1 080 pixels
Display aspect ratio : 16:9
Frame rate mode : Constant
Frame rate : 23.976 (24000/1001) fps
Color space : YUV
Chroma subsampling : 4:2:0
Bit depth : 8 bits
Scan type : Progressive
Bits/(Pixel*Frame) : 0.282
Stream size : 8.89 GiB (91%)
Title : 1979 Сила одиночки
Writing library : x264 core 146 r2538 121396c
Encoding settings : cabac=1 / ref=4 / deblock=1:-1:-1 / analyse=0x3:0x133 / me=umh / subme=11 / psy=1 / psy_rd=1.07:0.23 / mixed_ref=1 / me_range=32 / chroma_me=1 / trellis=2 / 8x8dct=1 / cqm=0 / deadzone=21,11 / fast_pskip=0 / chroma_qp_offset=-3 / threads=12 / lookahead_threads=3 / sliced_threads=0 / nr=0 / decimate=1 / interlaced=0 / bluray_compat=0 / constrained_intra=0 / bframes=12 / b_pyramid=2 / b_adapt=2 / b_bias=0 / direct=3 / weightb=1 / open_gop=0 / weightp=2 / keyint=250 / keyint_min=23 / scenecut=40 / intra_refresh=0 / rc=2pass / mbtree=0 / bitrate=14000 / ratetol=1.0 / qcomp=0.60 / qpmin=0 / qpmax=69 / qpstep=4 / cplxblur=20.0 / qblur=0.5 / ip_ratio=1.40 / pb_ratio=1.30 / aq=2:1.00
Language : English
Default : Yes
Forced : No
Audio #1
ID : 2
Format : AC-3
Format/Info : Audio Coding 3
Mode extension : CM (complete main)
Format settings, Endianness : Big
Codec ID : A_AC3
Duration : 1h 30mn
Bit rate mode : Constant
Bit rate : 192 Kbps
Channel(s) : 2 channels
Channel positions : Front: L R
Sampling rate : 48.0 KHz
Frame rate : 31.250 fps (1536 spf)
Compression mode : Lossy
Stream size : 125 MiB (1%)
Title : Многоголосый, НТВ
Language : Russian
Default : Yes
Forced : No
Audio #2
ID : 3
Format : AC-3
Format/Info : Audio Coding 3
Mode extension : CM (complete main)
Format settings, Endianness : Big
Codec ID : A_AC3
Duration : 1h 30mn
Bit rate mode : Constant
Bit rate : 192 Kbps
Channel(s) : 2 channels
Channel positions : Front: L R
Sampling rate : 48.0 KHz
Frame rate : 31.250 fps (1536 spf)
Compression mode : Lossy
Stream size : 125 MiB (1%)
Title : Многоголосый, OPT
Language : Russian
Default : No
Forced : No
Audio #3
ID : 4
Format : AC-3
Format/Info : Audio Coding 3
Mode extension : CM (complete main)
Format settings, Endianness : Big
Codec ID : A_AC3
Duration : 1h 30mn
Bit rate mode : Constant
Bit rate : 192 Kbps
Channel(s) : 2 channels
Channel positions : Front: L R
Sampling rate : 48.0 KHz
Frame rate : 31.250 fps (1536 spf)
Compression mode : Lossy
Stream size : 125 MiB (1%)
Title : Многоголосый, CTC
Language : Russian
Default : No
Forced : No
Audio #4
ID : 5
Format : AC-3
Format/Info : Audio Coding 3
Mode extension : CM (complete main)
Format settings, Endianness : Big
Codec ID : A_AC3
Duration : 1h 30mn
Bit rate mode : Constant
Bit rate : 192 Kbps
Channel(s) : 2 channels
Channel positions : Front: L R
Sampling rate : 48.0 KHz
Frame rate : 31.250 fps (1536 spf)
Compression mode : Lossy
Stream size : 125 MiB (1%)
Title : Одноголосый, Гаврилов
Language : Russian
Default : No
Forced : No
Audio #5
ID : 6
Format : AC-3
Format/Info : Audio Coding 3
Mode extension : CM (complete main)
Format settings, Endianness : Big
Codec ID : A_AC3
Duration : 1h 30mn
Bit rate mode : Constant
Bit rate : 192 Kbps
Channel(s) : 2 channels
Channel positions : Front: L R
Sampling rate : 48.0 KHz
Frame rate : 31.250 fps (1536 spf)
Compression mode : Lossy
Stream size : 125 MiB (1%)
Title : Одноголосый, Горчаков
Language : Russian
Default : No
Forced : No
Audio #6
ID : 7
Format : AC-3
Format/Info : Audio Coding 3
Mode extension : CM (complete main)
Format settings, Endianness : Big
Codec ID : A_AC3
Duration : 1h 30mn
Bit rate mode : Constant
Bit rate : 448 Kbps
Channel(s) : 6 channels
Channel positions : Front: L C R, Side: L R, LFE
Sampling rate : 48.0 KHz
Frame rate : 31.250 fps (1536 spf)
Compression mode : Lossy
Stream size : 291 MiB (3%)
Language : English
Default : No
Forced : No
Menu
00:00:00.000 : en:Chapter 01
00:04:46.202 : en:Chapter 02
00:13:26.722 : en:Chapter 03
00:19:53.817 : en:Chapter 04
00:28:00.553 : en:Chapter 05
00:34:53.925 : en:Chapter 06
00:40:06.862 : en:Chapter 07
00:47:31.181 : en:Chapter 08
00:55:29.784 : en:Chapter 09
01:00:32.545 : en:Chapter 10
01:10:22.259 : en:Chapter 11
01:18:03.428 : en:Chapter 12



_________________
Проголосуй за трекер Открытый торрент трекер - RUS-MEDIA.ORG

Проголосуй Открытый торрент трекер - RUS-MEDIA.ORG



реклама партнёра


Вернуться к началу
 Профиль Отправить личное сообщение  
 
   Похожие торренты   Автор   Торрент   Размер 
В этой теме нет новых непрочитанных сообщений. Сила одиночки / A Force of One [боевик, триллер, драма, криминал, 1979] BDRip, Avo

salma3

30 | 2

1.46 ГБ

В этой теме нет новых непрочитанных сообщений. Сила пятерых / Force: Five [Боевик, драма, приключения, 1981] BDRip 1080p, Avo

salma3

86 | 40

7.73 ГБ

В этой теме нет новых непрочитанных сообщений. Карающая сила / Avenging Force [Боевик, Триллер, Драма, 1986] BDRip-AVC, Mvo+Avo+Sub

salma3

15 | 121

3.84 ГБ

В этой теме нет новых непрочитанных сообщений. Сила пятерых / Force: Five [Боевик, драма, приключения, 1981] BDRemux 1080p, Avo

salma3

13 | 22

20.51 ГБ

В этой теме нет новых непрочитанных сообщений. Карающая сила / Avenging Force [боевик, триллер, драма, 1986] DVDRip-AVC, Avo+Mvo

salma3

16 | 2

1.55 ГБ

В этой теме нет новых непрочитанных сообщений. Карающая сила / Avenging Force [Боевик, Триллер, Драма, 1986] HDRip, Mvo+Avo

salma3

74 | 7

1.46 ГБ

В этой теме нет новых непрочитанных сообщений. Отряд «Дельта» / The Delta Force [Боевик, триллер, драма, 1986] BDRip 1080p, Mvo+Avo

salma3

58 | 68

13.47 ГБ


Начать новую тему Ответить на тему  [ 1 сообщение ] 




Для Мосгорсуда, Роскомнадзора и рекламодателей:: mosgorsud-torrent[собачка]yandex.ru