Торрент файл
скачать торрент магнет ссылка Добавлен: 28 мар 2016, 11:49
Размер: 3.36 ГБ
Сидеров: 4
Личеров: 1
Автор

СообщениеДобавлено: 28 мар 2016, 11:49 

Не в сети
Супермодератор
Аватара пользователя
Дата регистрации:
15 фев 2012, 16:44
Возраст: 28
Спасибо: 6563 / 2129
Сообщения: 43556

Страна: США
Жанр: Криминальная комедия
Год выпуска: 1986
Продолжительность: 01:43:38
Перевод 1: Профессиональный (дублированный) РТР
Перевод 2: Профессиональный (многоголосый, закадровый)
Перевод 3: Любительский одноголосый закадровый
Cубтитры: английские
Оригинальная аудиодорожка: английский
Режиссер: Джефф Кэнью / Jeff Kanew
В ролях: Берт Ланкастер, Кирк Дуглас, Чарльз Дернинг, Алексис Смит, Дана Карви, Дарланн Флюгел, Эли Уоллак, Монти Эш
Описание:
Двое старых преступников, организовавших ограбление поезда 25 лет назад, наконец, выходят из тюрьмы. Гарри и Арчи попадают в новый Лос-Анджелес, совершенно им не знакомый. Попробовав несколько честных способов зарабатывания денег, они все-таки решают заняться тем, что получается у них лучше всего – воровством в поездах. И надо же такому случиться – они выходят на дело в том самом поезде, за ограбление которого их посадили...
Сэмпл: Скачать
Тип релиза: WEB-DL 720p
Контейнер: MKV
Видео: 1280x544 (2.35:1); 3 897 Kbps; 23.976 fps; 0.176 bpp
Аудио 1: Russian; AC3; 48.0 KHz; 2ch; 192 Kbps Dub
Аудио 2: Russian; AC3; 48.0 KHz; 2ch; 192 Kbps MVO
Аудио 3: Russian; AC3; 48.0 KHz; 2ch; 192 Kbps VO
Аудио 4: English; AAC; 48.0 KHz; 2ch; ~160 Kbps
Format : Matroska
Format version : Version 4 / Version 2
File size : 3.36 GiB
Duration : 1h 43mn
Overall bit rate : 4 643 Kbps
Encoded date : UTC 2016-02-03 17:40:45
Writing application : mkvmerge v8.3.0 ('Over the Horizon') 64bit
Writing library : libebml v1.3.1 + libmatroska v1.4.2
Attachements : poster.jpg
DURATION : 01:43:31.328000000
NUMBER_OF_FRAMES : 194104
NUMBER_OF_BYTES : 149071872
_STATISTICS_WRITING_APP : mkvmerge v8.3.0 ('Over the Horizon') 64bit
_STATISTICS_WRITING_DATE_UT : 2016-02-03 17:40:45
_STATISTICS_TAGS : BPS DURATION NUMBER_OF_FRAMES NUMBER_OF_BYTES

Video
ID : 1
Format : AVC
Format/Info : Advanced Video Codec
Format profile : Main@L3.1
Format settings, CABAC : No
Format settings, ReFrames : 2 frames
Codec ID : V_MPEG4/ISO/AVC
Duration : 1h 43mn
Width : 1 280 pixels
Height : 544 pixels
Display aspect ratio : 2.35:1
Frame rate mode : Constant
Frame rate : 23.976 fps
Color space : YUV
Chroma subsampling : 4:2:0
Bit depth : 8 bits
Scan type : Progressive
Language : English
Default : Yes
Forced : No
Color range : Limited
Color primaries : BT.709
Transfer characteristics : BT.709
Matrix coefficients : BT.709

Audio #1
ID : 2
Format : AC-3
Format/Info : Audio Coding 3
Mode extension : CM (complete main)
Format settings, Endianness : Big
Codec ID : A_AC3
Duration : 1h 43mn
Bit rate mode : Constant
Bit rate : 192 Kbps
Channel(s) : 2 channels
Channel positions : Front: L R
Sampling rate : 48.0 KHz
Compression mode : Lossy
Stream size : 142 MiB (4%)
Title : Dub РТР
Language : Russian
Default : Yes
Forced : No

Audio #2
ID : 3
Format : AC-3
Format/Info : Audio Coding 3
Mode extension : CM (complete main)
Format settings, Endianness : Big
Codec ID : A_AC3
Duration : 1h 43mn
Bit rate mode : Constant
Bit rate : 192 Kbps
Channel(s) : 2 channels
Channel positions : Front: L R
Sampling rate : 48.0 KHz
Compression mode : Lossy
Stream size : 142 MiB (4%)
Title : MVO
Language : Russian
Default : No
Forced : No

Audio #3
ID : 4
Format : AC-3
Format/Info : Audio Coding 3
Mode extension : CM (complete main)
Format settings, Endianness : Big
Codec ID : A_AC3
Duration : 1h 43mn
Bit rate mode : Constant
Bit rate : 192 Kbps
Channel(s) : 2 channels
Channel positions : Front: L R
Sampling rate : 48.0 KHz
Compression mode : Lossy
Stream size : 142 MiB (4%)
Title : VO
Language : Russian
Default : No
Forced : No

Audio #4
ID : 5
Format : AAC
Format/Info : Advanced Audio Codec
Format profile : LC
Codec ID : A_AAC
Duration : 1h 43mn
Channel(s) : 2 channels
Channel positions : Front: L R
Sampling rate : 48.0 KHz
Compression mode : Lossy
Language : English
Default : No
Forced : No

Text
ID : 6
Format : UTF-8
Codec ID : S_TEXT/UTF8
Codec ID/Info : UTF-8 Plain Text
Language : English
Default : No
Forced : No


_________________
Проголосуй за трекер Открытый торрент трекер - RUS-MEDIA.ORG

Проголосуй Открытый торрент трекер - RUS-MEDIA.ORG



реклама партнёра


Вернуться к началу
 Профиль Отправить личное сообщение  
 
   Похожие торренты   Автор   Торрент   Размер 
В этой теме нет новых непрочитанных сообщений. Крутые мужики / Tough Guys [комедия, 1986] BDRip 720p, Mvo

salma3

36 | 13

7.3 ГБ

В этой теме нет новых непрочитанных сообщений. Крутые мужики / Tough Guys [комедия, 1986] BDRip-AVC, Dub

salma3

18 | 10

4.57 ГБ

В этой теме нет новых непрочитанных сообщений. Крутые мужики / Tough Guys [комедия, 1986] BDRip 1080p, Mvo

salma3

10 | 4

16.6 ГБ

В этой теме нет новых непрочитанных сообщений. Крутые парни / Tough Guys [комедия, 1986] WEB-DLRip, Dub

salma3

146 | 22

1.45 ГБ

В этой теме нет новых непрочитанных сообщений. Крутые ребята не танцуют / Tough Guys Don't Dance [триллер, драма, детектив, 1987] HDTV 1080i, Dvo

salma3

18 | 6

5.03 ГБ

В этой теме нет новых непрочитанных сообщений. Черные тигры / Хорошие парни носят черное / Крутые парни ходят в черном / Good Guys Wear Black [боевик, 1978] BDRip, Mvo

salma3

0 | 1

1.46 ГБ

В этой теме нет новых непрочитанных сообщений. Крутые ребята не плачут / Kule kidz grater ikke [драма, семейный, спорт, 2014] BDRip 720p, avo+sub

Dracon

20 | 4

4.5 ГБ


Начать новую тему Ответить на тему  [ 1 сообщение ] 




Для Мосгорсуда, Роскомнадзора и рекламодателей:: mosgorsud-torrent[собачка]yandex.ru