Торрент файл
скачать торрент магнет ссылка Добавлен: 28 мар 2016, 11:25
Размер: 7.63 ГБ
Сидеров: 108
Личеров: 33
Автор

СообщениеДобавлено: 28 мар 2016, 11:25 

В сети
Супермодератор
Аватара пользователя
Дата регистрации:
15 фев 2012, 16:44
Возраст: 28
Спасибо: 6672 / 2146
Сообщения: 46100
Год выпуска: 2012
Жанр: боевик, триллер, драма, криминал
Выпущено: США, Великобритания, Франция
Режиссер: Бальтасар Кормакур
В ролях: Марк Уолберг , Кейт Бекинсейл , Бен Фостер , Калеб Лэндри Джонс , Джованни Рибизи , Дж.К. Симмонс , Лукас Хаас , Лаки Джонсон , Диего Луна , Роберт Уолберг , Дэвид О’Хара , Уильям Лаккинг
Перевод: Дублированный, Авторский (одноголосый)


Сюжет фильма:
Мир контрабандистов - это большие ставки и огромный риск. Cтоит оступиться лишь раз, и тебя ждет смерть. В этом мире Крис был лучшим, его называли Гудини, но он вышел из игры, женился и начал новую жизнь...



Качество: BDRip 720p
Формат: AVC (библиотека кодирования x.264)
Контейнер (Расширение): MKV
Видео: 1280x544, 6567 Кбит/сек, 23,976 кадр/сек, 0,393 Бит/[Пиксели*Кадры]
Аудио №1: русский / AC3 / 5.1 / 48 kHz / 448 kbps / 16 bit |Дублированный|
Аудио №2: русский / AC3 / 5.1 / 48 kHz / 640 kbps / 16 bit |Авторский, Немахов|
Аудио №3: русский / AC3 / 5.1 / 48 kHz / 640 kbps / 16 bit |Авторский, Гаврилов|
Аудио №4: русский / AC3 / 5.1 / 48 kHz / 640 kbps / 16 bit |Авторский, Гаевский|
Аудио №5: русский / AC3 / 5.1 / 48 kHz / 384 kbps / 16 bit |Авторский, Карповский|
Аудио №6: английский / AC3 / 5.1 / 48 kHz / 640 kbps / 16 bit
Субтитры: русские (Forced), русские, русские (Voronine), русские (Voronine (18+)), английские, английские (SDH), английские (SDH Colored)
Навигация по главам(Чаптеры): есть
Продолжительность: 01:49:38
Автор рипа: Сообщество:

Format : Matroska
Format version : Version 2
File size : 7.63 GiB
Duration : 1h 49mn
Overall bit rate : 9 960 Kbps
Movie name : Contraband.(2012).BDRip.720p.[denis100]
Encoded date : UTC 2016-03-27 15:18:41
Writing application : mkvmerge v5.8.0 ('No Sleep / Pillow') built on Sep 2 2012 15:37:04
Writing library : libebml v1.2.3 + libmatroska v1.3.0
Video
ID : 1
Format : AVC
Format/Info : Advanced Video Codec
Format profile : High@L4.1
Format settings, CABAC : Yes
Format settings, ReFrames : 11 frames
Codec ID : V_MPEG4/ISO/AVC
Duration : 1h 49mn
Bit rate : 6 567 Kbps
Width : 1 280 pixels
Height : 544 pixels
Display aspect ratio : 2.35:1
Frame rate : 23.976 fps
Color space : YUV
Chroma subsampling : 4:2:0
Bit depth : 8 bits
Scan type : Progressive
Bits/(Pixel*Frame) : 0.393
Stream size : 4.88 GiB (64%)
Title : Contraband.(2012).BDRip.720p.[denis100]
Writing library : x264 core 148 r2665 a01e339
Encoding settings : cabac=1 / ref=11 / deblock=1:-3:-3 / analyse=0x3:0x133 / me=umh / subme=11 / psy=1 / psy_rd=1.00:0.10 / mixed_ref=1 / me_range=48 / chroma_me=1 / trellis=2 / 8x8dct=1 / cqm=0 / deadzone=21,11 / fast_pskip=0 / chroma_qp_offset=-3 / threads=6 / lookahead_threads=1 / sliced_threads=0 / nr=0 / decimate=1 / interlaced=0 / bluray_compat=0 / constrained_intra=0 / bframes=12 / b_pyramid=2 / b_adapt=2 / b_bias=0 / direct=3 / weightb=1 / open_gop=0 / weightp=2 / keyint=240 / keyint_min=23 / scenecut=40 / intra_refresh=0 / rc=2pass / mbtree=0 / bitrate=6567 / ratetol=1.0 / qcomp=0.60 / qpmin=0 / qpmax=69 / qpstep=4 / cplxblur=20.0 / qblur=0.5 / ip_ratio=1.40 / pb_ratio=1.30 / aq=1:0.80
Language : English
Default : Yes
Forced : No
Audio #1
ID : 2
Format : AC-3
Format/Info : Audio Coding 3
Mode extension : CM (complete main)
Codec ID : A_AC3
Duration : 1h 49mn
Bit rate mode : Constant
Bit rate : 448 Kbps
Channel(s) : 6 channels
Channel positions : Front: L C R, Side: L R, LFE
Sampling rate : 48.0 KHz
Bit depth : 16 bits
Compression mode : Lossy
Stream size : 351 MiB (4%)
Title : Дубляж
Language : Russian
Default : Yes
Forced : No
Audio #2
ID : 3
Format : AC-3
Format/Info : Audio Coding 3
Mode extension : CM (complete main)
Codec ID : A_AC3
Duration : 1h 49mn
Bit rate mode : Constant
Bit rate : 640 Kbps
Channel(s) : 6 channels
Channel positions : Front: L C R, Side: L R, LFE
Sampling rate : 48.0 KHz
Bit depth : 16 bits
Compression mode : Lossy
Stream size : 502 MiB (6%)
Title : Авторский, Немахов
Language : Russian
Default : No
Forced : No
Audio #3
ID : 4
Format : AC-3
Format/Info : Audio Coding 3
Mode extension : CM (complete main)
Codec ID : A_AC3
Duration : 1h 49mn
Bit rate mode : Constant
Bit rate : 640 Kbps
Channel(s) : 6 channels
Channel positions : Front: L C R, Side: L R, LFE
Sampling rate : 48.0 KHz
Bit depth : 16 bits
Compression mode : Lossy
Stream size : 502 MiB (6%)
Title : Авторский, Гаврилов
Language : Russian
Default : No
Forced : No
Audio #4
ID : 5
Format : AC-3
Format/Info : Audio Coding 3
Mode extension : CM (complete main)
Codec ID : A_AC3
Duration : 1h 49mn
Bit rate mode : Constant
Bit rate : 640 Kbps
Channel(s) : 6 channels
Channel positions : Front: L C R, Side: L R, LFE
Sampling rate : 48.0 KHz
Bit depth : 16 bits
Compression mode : Lossy
Stream size : 502 MiB (6%)
Title : Авторский, Гаевский
Language : Russian
Default : No
Forced : No
Audio #5
ID : 6
Format : AC-3
Format/Info : Audio Coding 3
Mode extension : CM (complete main)
Codec ID : A_AC3
Duration : 1h 49mn
Bit rate mode : Constant
Bit rate : 384 Kbps
Channel(s) : 6 channels
Channel positions : Front: L C R, Side: L R, LFE
Sampling rate : 48.0 KHz
Bit depth : 16 bits
Compression mode : Lossy
Stream size : 301 MiB (4%)
Title : Авторский, Карповский
Language : Russian
Default : No
Forced : No
Audio #6
ID : 7
Format : AC-3
Format/Info : Audio Coding 3
Mode extension : CM (complete main)
Codec ID : A_AC3
Duration : 1h 49mn
Bit rate mode : Constant
Bit rate : 640 Kbps
Channel(s) : 6 channels
Channel positions : Front: L C R, Side: L R, LFE
Sampling rate : 48.0 KHz
Bit depth : 16 bits
Compression mode : Lossy
Stream size : 502 MiB (6%)
Language : English
Default : No
Forced : No
Text #1
ID : 8
Format : UTF-8
Codec ID : S_TEXT/UTF8
Codec ID/Info : UTF-8 Plain Text
Title : Forced
Language : Russian
Default : Yes
Forced : No
Text #2
ID : 9
Format : UTF-8
Codec ID : S_TEXT/UTF8
Codec ID/Info : UTF-8 Plain Text
Language : Russian
Default : No
Forced : No
Text #3
ID : 10
Format : UTF-8
Codec ID : S_TEXT/UTF8
Codec ID/Info : UTF-8 Plain Text
Title : Voronine
Language : Russian
Default : No
Forced : No
Text #4
ID : 11
Format : UTF-8
Codec ID : S_TEXT/UTF8
Codec ID/Info : UTF-8 Plain Text
Title : Voronine (18+)
Language : Russian
Default : No
Forced : No
Text #5
ID : 12
Format : UTF-8
Codec ID : S_TEXT/UTF8
Codec ID/Info : UTF-8 Plain Text
Language : English
Default : No
Forced : No
Text #6
ID : 13
Format : UTF-8
Codec ID : S_TEXT/UTF8
Codec ID/Info : UTF-8 Plain Text
Title : SDH
Language : English
Default : No
Forced : No
Text #7
ID : 14
Format : UTF-8
Codec ID : S_TEXT/UTF8
Codec ID/Info : UTF-8 Plain Text
Title : SDH Colored
Language : English
Default : No
Forced : No
Menu
00:00:00.000 : en:00:00:00.000
00:08:26.254 : en:00:08:26.254
00:14:46.259 : en:00:14:46.259
00:19:12.858 : en:00:19:12.858
00:24:52.365 : en:00:24:52.365
00:29:12.625 : en:00:29:12.625
00:34:39.744 : en:00:34:39.744
00:38:56.375 : en:00:38:56.375
00:45:36.942 : en:00:45:36.942
00:52:17.759 : en:00:52:17.759
00:59:56.092 : en:00:59:56.092
01:05:31.344 : en:01:05:31.344
01:10:03.989 : en:01:10:03.989
01:16:15.112 : en:01:16:15.112
01:21:17.372 : en:01:21:17.372
01:25:34.045 : en:01:25:34.045
01:30:15.908 : en:01:30:15.908
01:35:26.886 : en:01:35:26.886
01:39:01.143 : en:01:39:01.143
01:44:32.099 : en:01:44:32.099
x264 [info]: frame I:959 Avg QP:14.53 size:120208
x264 [info]: frame P:40962 Avg QP:17.46 size: 51637
x264 [info]: frame B:115805 Avg QP:20.05 size: 27349
x264 [info]: consecutive B-frames: 3.9% 6.4% 19.2% 15.8% 15.0% 30.0% 4.1% 0.9% 1.3% 1.3% 1.0% 0.5% 0.6%


_________________
Проголосуй за трекер Открытый торрент трекер - RUS-MEDIA.ORG

Проголосуй Открытый торрент трекер - RUS-MEDIA.ORG



реклама партнёра


Вернуться к началу
 Профиль Отправить личное сообщение  
 
   Похожие торренты   Автор   Торрент   Размер 
В этой теме нет новых непрочитанных сообщений. Контрабанда / Contraband [боевик, триллер, драма, 2012] BDRip-HEVC 1080p, Dub

salma3

16 | 3

5.46 ГБ

В этой теме нет новых непрочитанных сообщений. Контрабанда / Contraband [Боевик, триллер, драма, 2012] Blu-Ray Remux 1080p, Dub [Лицензия]

salma3

10 | 28

33.22 ГБ

В этой теме нет новых непрочитанных сообщений. Перекресток смерти / True Justice [Боевик, триллер, драма, криминал, 2012] BDRip 720p, Dub [РЕН ТВ]

salma3

33 | 5

3.17 ГБ

В этой теме нет новых непрочитанных сообщений. Убей их всех / Kill 'em All [Боевик, триллер, криминал, 2012] BDRip 720p, Dvo [НТВ+]

salma3

69 | 36

3.75 ГБ

В этой теме нет новых непрочитанных сообщений. Осада / The Siege [боевик, триллер, драма, криминал, 1998] BDRip 720p, Dub

salma3

15 | 5

7.93 ГБ

В этой теме нет новых непрочитанных сообщений. Чёрный пёс / Black Dog [боевик, триллер, драма, криминал, 1998] BDRip 720p, Mvo+Dvo+Avo+Sub

salma3

40 | 31

5.7 ГБ

В этой теме нет новых непрочитанных сообщений. Якудза / The Yakuza [боевик, триллер, драма, криминал, 1974] BDRip 720p, Dvo+Sub [НТВ]

salma3

75 | 56

6.71 ГБ


Начать новую тему Ответить на тему  [ 1 сообщение ] 




Для Мосгорсуда, Роскомнадзора и рекламодателей:: mosgorsud-torrent[собачка]yandex.ru