Торрент файл
скачать торрент магнет ссылка Добавлен: 23 мар 2016, 16:49
Размер: 8.99 ГБ
Сидеров: 159
Личеров: 31
Автор

СообщениеДобавлено: 23 мар 2016, 16:49 

Не в сети
Супермодератор
Аватара пользователя
Дата регистрации:
15 фев 2012, 16:44
Возраст: 28
Спасибо: 6833 / 2147
Сообщения: 49377
Год выхода: 2006
Страна: Германия, ЮАР, США
Студия: Film Afrika Worldwide, ApolloProMovie & Co. 1. Filmproduktion, DEJ Productions Inc.
Продолжительность: 01:30:54
Жанр: ужасы, триллер, комедия
Режиссер: Николас Мастандреа
В ролях: Мишель Родригес, Оливер Хадсон, Тэрин Мэннинг, Эрик Лайвли, Хилл Харпер, Ник Борэйни, Лиза-Мари Шнайдер, ...
Перевод: Профессиональный (дублированный)

О фильме: Увлекательная поездка на заброшенный остров обернулась настоящим кошмаром для веселой компании подростков. Пребывая в уверенности, что вокруг никого нет, друзья решают воспользоваться всеми преимуществами уединения и оторваться по полной программе! Неожиданно они подвергаются нападению диких собак, обосновавшихся на этом острове. Очень скоро, загнанные в угол подростки понимают, что имеют дело не с простыми собаками. Обитающие на острове твари, с измененным генетическим кодом, обладают необыкновенным, почти сверхъестественным умом и неутолимым голодом, а укусы их несут необратимые изменения в организме человека…



Кодек: x264
Качество: BDRip 1080p
Видео: 1920x1080 , 12000 kbps, 23,976 fps
Аудио #1: AC-3, 6 ch, 640 kbps (Rus) - Dub
Аудио #2: DTS, 6 ch, 1509 kbps (Eng)
Субтитры: Русские, Английские

x264 [info]: frame I:900 Avg QP:18.91 size:197458
x264 [info]: frame P:40738 Avg QP:20.98 size: 97932
x264 [info]: frame B:89148 Avg QP:22.89 size: 45016
x264 [info]: consecutive B-frames: 1.8% 23.1% 3.3% 64.8% 2.9% 0.7% 2.6% 0.1% 0.0% 0.1% 0.4% 0.0% 0.0%
Общее
Уникальный идентификатор : 226207502593666550262399005555544197108 (0xAA2DFAF4389FB18DA92FA243AFB687F4)
Полное имя : Свора (The Breed) 2006 BDRip 1080p.mkv
Формат : Matroska
Версия формата : Version 2
Размер файла : 8,99 Гбайт
Продолжительность : 1 ч. 30 м.
Общий поток : 14,1 Мбит/сек
Дата кодирования : UTC 2016-03-21 15:00:45
Программа кодирования : mkvmerge v4.0.0 ('The Stars were mine') сборка от Jun 6 2010 16:18:42
Библиотека кодирования : libebml v1.0.0 + libmatroska v1.0.0
Видео
Идентификатор : 1
Формат : AVC
Формат/Информация : Advanced Video Codec
Профиль формата : High@L4.1
Параметр CABAC формата : Да
Параметр ReFrames формата : 4 кадра
Идентификатор кодека : V_MPEG4/ISO/AVC
Продолжительность : 1 ч. 30 м.
Битрейт : 12,0 Мбит/сек
Ширина : 1920 пикселей
Высота : 1080 пикселей
Соотношение сторон : 16:9
Режим частоты кадров : Постоянный
Частота кадров : 23,976 кадра/сек
Цветовое пространство : YUV
Субдискретизация насыщенности : 4:2:0
Битовая глубина : 8 бит
Тип развёртки : Прогрессивная
Бит/(Пиксели*Кадры) : 0.241
Размер потока : 7,44 Гбайт (83%)
Библиотека кодирования : x264 core 146 r2538 121396c
Настройки программы : cabac=1 / ref=4 / deblock=1:-3:-3 / analyse=0x3:0x133 / me=umh / subme=11 / psy=1 / psy_rd=1.10:0.16 / mixed_ref=1 / me_range=32 / chroma_me=1 / trellis=2 / 8x8dct=1 / cqm=0 / deadzone=21,11 / fast_pskip=0 / chroma_qp_offset=-3 / threads=12 / lookahead_threads=2 / sliced_threads=0 / nr=0 / decimate=0 / interlaced=0 / bluray_compat=0 / constrained_intra=0 / bframes=12 / b_pyramid=2 / b_adapt=2 / b_bias=0 / direct=3 / weightb=1 / open_gop=0 / weightp=2 / keyint=240 / keyint_min=23 / scenecut=40 / intra_refresh=0 / rc_lookahead=60 / rc=2pass / mbtree=0 / bitrate=12000 / ratetol=1.0 / qcomp=0.60 / qpmin=0 / qpmax=69 / qpstep=4 / cplxblur=20.0 / qblur=0.5 / vbv_maxrate=50000 / vbv_bufsize=62500 / nal_hrd=none / filler=0 / ip_ratio=1.40 / pb_ratio=1.30 / aq=1:0.90
Язык : German
Default : Нет
Forced : Нет
Аудио #1
Идентификатор : 2
Формат : AC-3
Формат/Информация : Audio Coding 3
Расширение режима : CM (complete main)
Параметр Endianness формата : Big
Идентификатор кодека : A_AC3
Продолжительность : 1 ч. 30 м.
Вид битрейта : Постоянный
Битрейт : 640 Кбит/сек
Каналы : 6 каналов
Расположение каналов : Front: L C R, Side: L R, LFE
Частота : 48,0 КГц
Метод сжатия : С потерями
Размер потока : 416 Мбайт (5%)
Заголовок : Dub
Язык : Russian
Default : Нет
Forced : Нет
Аудио #2
Идентификатор : 3
Формат : DTS
Формат/Информация : Digital Theater Systems
Режим : 16
Параметр Endianness формата : Big
Идентификатор кодека : A_DTS
Продолжительность : 1 ч. 30 м.
Вид битрейта : Постоянный
Битрейт : 1509 Кбит/сек
Каналы : 6 каналов
Расположение каналов : Front: L C R, Side: L R, LFE
Частота : 48,0 КГц
Битовая глубина : 16 бит
Метод сжатия : С потерями
Размер потока : 981 Мбайт (11%)
Язык : English
Default : Нет
Forced : Нет
Текст #1
Идентификатор : 4
Формат : UTF-8
Идентификатор кодека : S_TEXT/UTF8
Идентификатор кодека/Информация : UTF-8 Plain Text
Язык : Russian
Default : Нет
Forced : Нет
Текст #2
Идентификатор : 5
Формат : UTF-8
Идентификатор кодека : S_TEXT/UTF8
Идентификатор кодека/Информация : UTF-8 Plain Text
Язык : English
Default : Нет
Forced : Нет



_________________
Проголосуй за трекер Открытый торрент трекер - RUS-MEDIA.ORG

Проголосуй Открытый торрент трекер - RUS-MEDIA.ORG



реклама партнёра


Вернуться к началу
 Профиль Отправить личное сообщение  
 
   Похожие торренты   Автор   Торрент   Размер 
В этой теме нет новых непрочитанных сообщений. Свора / The Breed [ужасы, триллер, 2006] BDRip-AVC, Dub

salma3

72 | 7

746.45 МБ

В этой теме нет новых непрочитанных сообщений. Глюки / Bug [Ужасы, триллер, драма, 2006] BDRip 1080p, Dub

salma3

12 | 3

8.22 ГБ

В этой теме нет новых непрочитанных сообщений. Остаться в живых / Fritt vilt [ужасы, триллер, 2006] BDRip 1080p, Dvo

salma3

25 | 16

8.36 ГБ

В этой теме нет новых непрочитанных сообщений. Плетеный человек / The Wicker Man [мистика, ужасы, триллер, детектив, 2006] BDRip 1080p, Dub

salma3

72 | 9

8.26 ГБ

В этой теме нет новых непрочитанных сообщений. Кошмарный детектив / Akumu tantei [Ужасы, фэнтези, триллер, 2006] BDRip 1080p, Dvo

salma3

30 | 9

10.13 ГБ

В этой теме нет новых непрочитанных сообщений. Сделка с дьяволом / The Covenant [ужасы, фэнтези, боевик, триллер, 2006] BDRip 1080p, Dub

salma3

4 | 1

8.06 ГБ

В этой теме нет новых непрочитанных сообщений. Волки-оборотни / Skinwalkers [Ужасы, Боевик, Фэнтези, Триллер, 2006] BDRip 1080p, Dub

salma3

38 | 11

8.43 ГБ


Начать новую тему Ответить на тему  [ 1 сообщение ] 




Для Мосгорсуда, Роскомнадзора и рекламодателей:: mosgorsud-torrent[собачка]yandex.ru