Торрент файл
скачать торрент магнет ссылка Добавлен: 23 мар 2016, 16:45
Размер: 8.27 ГБ
Сидеров: 166
Личеров: 52
Автор

СообщениеДобавлено: 23 мар 2016, 16:45 

Не в сети
Супермодератор
Аватара пользователя
Дата регистрации:
15 фев 2012, 16:44
Возраст: 29
Спасибо: 7380 / 2147
Сообщения: 76240
Год выпуска: 2008
Жанр: Мелодрама, драма
Выпущено: Франция, Canal+ [fr], Centre National de la Cinématographie (CNC), Ciné Cinémas, France 3 Cinéma, Gaumont
Режиссер: Жозиан Баласко

В ролях: Натали Бэй, Эрик Каравака, Изабель Карре, Жозиан Баласко, Катрин Хигель, Марилу Берри, Джордж Агиляр, Сандрин Ле Берре, Дэвид Россо

О фильме: Работа бывает разной - легкой и тяжелой, грязной и чистой, но бывает работа, наличие которой приходиться скрывать от всех, даже от своей семьи. Именно такая работа у Патрика, он работает в эскортном агентстве, и обязан оказывать услуги сексуального характера немолодым женщинам. Другая героиня фильма "Клиентка французского жиголо" (Cliente) - пятидесятилетняя Джудит, режиссер телевизионных шоу. У Джудит нет мужа, и единственная её отрада, нанять молодого человека для эскорт - услуг. В это раз, её выбор падает на Патрика, вскоре выясняется, что им обоим есть что скрывать...


Качество: BDRip 1080p
Видео: MPEG-4 AVC, 9658 Кбит/с, 1920x1064, 23.976 кадр/с
Аудио: Русский (AC3, 6 ch, 448 Кбит/с), французский (DTS, 6 ch, 1536 Кбит/с)
Продолжительность: 01:43:24
Перевод: Профессиональный многоголосый
Субтитры: Английские

Общее
Уникальный идентификатор : 220164555498340477267611219990127115081 (0xA5A226A8C49E554BBD3F457D0090FB49)
Полное имя : D:киноKlientka.francuzskogo.zhigolo.2008.x264.BDRip(1080p).mkv
Формат : Matroska
Версия формата : Version 2
Размер файла : 8,27 Гбайт
Продолжительность : 1 ч. 43 м.
Общий поток : 11,4 Мбит/сек
Название фильма : --SCHUMAHER--
Дата кодирования : UTC 2010-10-24 07:40:29
Программа кодирования : mkvmerge v3.4.0 ('Rapunzel') сборка от May 15 2010 09:38:20
Библиотека кодирования : libebml v0.8.0 + libmatroska v0.9.0
Видео
Идентификатор : 1
Формат : AVC
Формат/Информация : Advanced Video Codec
Профиль формата : High@L4.1
Параметр CABAC формата : Да
Параметр ReFrames формата : 4 кадра
Идентификатор кодека : V_MPEG4/ISO/AVC
Продолжительность : 1 ч. 43 м.
Битрейт : 9658 Кбит/сек
Ширина : 1920 пикселей
Высота : 1064 пикселя
Соотношение сторон : 16:9
Режим частоты кадров : Постоянный
Частота кадров : 23,976 кадра/сек
Цветовое пространство : YUV
Субдискретизация насыщенности : 4:2:0
Битовая глубина : 8 бит
Тип развёртки : Прогрессивная
Бит/(Пиксели*Кадры) : 0.197
Размер потока : 6,69 Гбайт (81%)
Библиотека кодирования : x264 core 105 r1732 2b04482
Настройки программы : cabac=1 / ref=4 / deblock=1:-1:-1 / analyse=0x3:0x113 / me=umh / subme=7 / psy=1 / psy_rd=1.00:0.00 / mixed_ref=1 / me_range=16 / chroma_me=1 / trellis=1 / 8x8dct=1 / cqm=0 / deadzone=21,11 / fast_pskip=1 / chroma_qp_offset=-2 / threads=12 / sliced_threads=0 / nr=0 / decimate=1 / interlaced=0 / constrained_intra=0 / bframes=3 / b_pyramid=2 / b_adapt=2 / b_bias=0 / direct=3 / weightb=1 / open_gop=0 / weightp=2 / keyint=250 / keyint_min=23 / scenecut=40 / intra_refresh=0 / rc_lookahead=40 / rc=2pass / mbtree=1 / bitrate=9658 / ratetol=1.0 / qcomp=0.60 / qpmin=10 / qpmax=51 / qpstep=4 / cplxblur=20.0 / qblur=0.5 / vbv_maxrate=50000 / vbv_bufsize=50000 / ip_ratio=1.40 / aq=1:1.00 / nal_hrd=none
Язык : French
Default : Да
Forced : Нет
Аудио #1
Идентификатор : 2
Формат : AC-3
Формат/Информация : Audio Coding 3
Расширение режима : CM (complete main)
Параметр Endianness формата : Big
Идентификатор кодека : A_AC3
Продолжительность : 1 ч. 43 м.
Вид битрейта : Постоянный
Битрейт : 448 Кбит/сек
Каналы : 6 каналов
Расположение каналов : Front: L C R, Side: L R, LFE
Частота : 48,0 КГц
Битовая глубина : 16 бит
Метод сжатия : С потерями
Размер потока : 331 Мбайт (4%)
Язык : Russian
Default : Да
Forced : Нет
Аудио #2
Идентификатор : 3
Формат : DTS
Формат/Информация : Digital Theater Systems
Режим : 16
Параметр Endianness формата : Big
Идентификатор кодека : A_DTS
Продолжительность : 1 ч. 43 м.
Вид битрейта : Постоянный
Битрейт : 1509 Кбит/сек
Каналы : 6 каналов
Расположение каналов : Front: L C R, Side: L R, LFE
Частота : 48,0 КГц
Битовая глубина : 16 бит
Метод сжатия : С потерями
Размер потока : 1,09 Гбайт (13%)
Язык : French
Default : Нет
Forced : Нет
Текст
Идентификатор : 4
Формат : UTF-8
Идентификатор кодека : S_TEXT/UTF8
Идентификатор кодека/Информация : UTF-8 Plain Text
Язык : English
Default : Нет
Forced : Нет


_________________
Проголосуй за трекер Открытый торрент трекер - RUS-MEDIA.ORG

Проголосуй Открытый торрент трекер - RUS-MEDIA.ORG


Вернуться к началу
 Профиль Отправить личное сообщение  
 
   Похожие торренты   Автор   Торрент   Размер 
В этой теме нет новых непрочитанных сообщений. Убийства в Оксфорде / The Oxford Murders [Триллер, мелодрама, криминал, 2008] BDRip 1080р, Mvo

salma3

25 | 2

11.28 ГБ

В этой теме нет новых непрочитанных сообщений. Американские жиголо / Cougars, Inc. [драма, комедия, 2011] BDRip 1080p, Mvo [Лицензия]

salma3

0 | 0

7.49 ГБ

В этой теме нет новых непрочитанных сообщений. Человеческий контракт / The Human Contract [Драма, 2008] BDRip 1080р, Dvo

salma3

37 | 27

7.94 ГБ

В этой теме нет новых непрочитанных сообщений. Разбитое Зеркало / Отражение / The Broken [Ужасы, триллер, драма, 2008] BDRip 1080р, Dub+Sub

salma3

74 | 48

8.21 ГБ

В этой теме нет новых непрочитанных сообщений. С первого взгляда / At First Sight [Мелодрама, драма, 1999] BDRip 1080р, Dub

salma3

3 | 1

12.88 ГБ

В этой теме нет новых непрочитанных сообщений. Запах мандарина / L'odeur de la mandarine [Мелодрама, драма, 2015] BDRip 1080р, Avo+Sub

salma3

275 | 91

9.93 ГБ

В этой теме нет новых непрочитанных сообщений. Крутая компания / In Good Company [Комедия, мелодрама, драма, 2004] BDRip 1080р, Mvo

salma3

1 | 2

9.54 ГБ


Начать новую тему Ответить на тему  [ 1 сообщение ] 




Для Мосгорсуда, Роскомнадзора и рекламодателей:: mosgorsud-torrent[собачка]yandex.ru
cron