Торрент файл
скачать торрент магнет ссылка Добавлен: 19 мар 2016, 13:01
Размер: 8.57 ГБ
Сидеров: 78
Личеров: 30
Автор

СообщениеДобавлено: 19 мар 2016, 13:01 

Не в сети
Супермодератор
Аватара пользователя
Дата регистрации:
15 фев 2012, 16:44
Возраст: 29
Спасибо: 7377 / 2147
Сообщения: 75969
Год выхода: 2002
Жанр: ужасы, фантастика, триллер, драма
Режиссер: Анджей Секула / Andrzej Sekula

В ролях: Кэри Матчетт, Жерен Вин Дэйвис, Грэйс Линн Кунг, Мэттью Фергюсон, Нил Кроун, Барбара Гордон

О фильме:
Таинственный гиперкуб, загадочное творение безумного гения, вновь наполняется невинными жертвами. Восемь незнакомцев очутились в странных комнатах, где действуют лишь законы четвертого измерения, играющие злые шутки с пространством и временем. В отчаянии, пытаясь найти выход из запятнанного кровью лабиринта, где любой неосторожный шаг равносилен самоубийству. Они вскоре понимают, что сумеют выжить, только если разгадают все тайны гигантской мозаики смертоносных ловушек, прежде чем она распадется на части вместе со своими пленниками.



Страна: Канада
Продолжительность: 01:34:13
Перевод: Профессиональный (многоголосый-закадровый)
Файл
Кодек: MPEG4 Video (H264)
Качество: BDRip 1080p
Видео: 1920x1080, 11,4 Мбит/сек, 23.976fps
Звук:
Аудио #1: Русский (AC3, 6 ch, 448 Кбит/с) МVO
Аудио #2: Русский (DTS, 6 ch, 768 Кбит/с) MVO
Аудио #3: Английский (AC3, 6 ch, 384 Кбит/с) Оригинал
Субтитры: Русские (полные), английские (полные + SDH)
Общее
Уникальный идентификатор : 240539276768054450721441210512006702860 (0xB4F62DF9CC9D8A1F83B5C2DE3B37E70C)
Полное имя : D:FilmCube.2.Hypercube.2002.BDRip.1080p.mkv
Формат : Matroska
Версия формата : Version 2
Размер файла : 8,57 Гбайт
Продолжительность : 1 ч. 34 м.
Общий поток : 13,0 Мбит/сек
Дата кодирования : UTC 2016-03-17 20:06:47
Программа кодирования : mkvmerge v4.0.0 ('The Stars were mine') сборка от Jun 6 2010 16:18:42
Библиотека кодирования : libebml v1.0.0 + libmatroska v1.0.0
Видео
Идентификатор : 1
Формат : AVC
Формат/Информация : Advanced Video Codec
Профиль формата : High@L4.1
Параметр CABAC формата : Да
Параметр ReFrames формата : 4 кадра
Идентификатор кодека : V_MPEG4/ISO/AVC
Продолжительность : 1 ч. 34 м.
Битрейт : 11,4 Мбит/сек
Ширина : 1920 пикселей
Высота : 1080 пикселей
Соотношение сторон : 16:9
Режим частоты кадров : Постоянный
Частота кадров : 23,976 (24000/1001) кадра/сек
Цветовое пространство : YUV
Субдискретизация насыщенности : 4:2:0
Битовая глубина : 8 бит
Тип развёртки : Прогрессивная
Бит/(Пиксели*Кадры) : 0.230
Размер потока : 7,35 Гбайт (86%)
Библиотека кодирования : x264 core 148 r2665 a01e339
Настройки программы : cabac=1 / ref=4 / deblock=1:-3:-3 / analyse=0x3:0x113 / me=umh / subme=8 / psy=1 / psy_rd=1.00:0.00 / mixed_ref=1 / me_range=32 / chroma_me=1 / trellis=1 / 8x8dct=1 / cqm=0 / deadzone=21,11 / fast_pskip=1 / chroma_qp_offset=-2 / threads=12 / lookahead_threads=2 / sliced_threads=0 / nr=0 / decimate=1 / interlaced=0 / bluray_compat=0 / constrained_intra=0 / bframes=3 / b_pyramid=2 / b_adapt=2 / b_bias=0 / direct=3 / weightb=1 / open_gop=0 / weightp=2 / keyint=240 / keyint_min=24 / scenecut=40 / intra_refresh=0 / rc_lookahead=50 / rc=2pass / mbtree=1 / bitrate=11433 / ratetol=1.0 / qcomp=0.60 / qpmin=0 / qpmax=69 / qpstep=4 / cplxblur=20.0 / qblur=0.5 / ip_ratio=1.40 / aq=3:0.80
Язык : English
Default : Нет
Forced : Нет
Аудио #1
Идентификатор : 2
Формат : AC-3
Формат/Информация : Audio Coding 3
Расширение режима : CM (complete main)
Параметр Endianness формата : Big
Идентификатор кодека : A_AC3
Продолжительность : 1 ч. 34 м.
Вид битрейта : Постоянный
Битрейт : 448 Кбит/сек
Каналы : 6 каналов
Расположение каналов : Front: L C R, Side: L R, LFE
Частота : 48,0 КГц
Частота кадров : 31,250 кадров/сек (1536 spf)
Метод сжатия : С потерями
Размер потока : 302 Мбайт (3%)
Заголовок : MVO
Язык : Russian
Default : Да
Forced : Да
Аудио #2
Идентификатор : 3
Формат : DTS
Формат/Информация : Digital Theater Systems
Режим : 16
Параметр Endianness формата : Big
Идентификатор кодека : A_DTS
Продолжительность : 1 ч. 34 м.
Вид битрейта : Постоянный
Битрейт : 755 Кбит/сек
Каналы : 6 каналов
Расположение каналов : Front: L C R, Side: L R, LFE
Частота : 48,0 КГц
Частота кадров : 93,750 кадра/сек (512 spf)
Битовая глубина : 24 бит
Метод сжатия : С потерями
Размер потока : 508 Мбайт (6%)
Заголовок : MVO
Язык : Russian
Default : Нет
Forced : Нет
Аудио #3
Идентификатор : 4
Формат : AC-3
Формат/Информация : Audio Coding 3
Расширение режима : CM (complete main)
Параметр Endianness формата : Big
Идентификатор кодека : A_AC3
Продолжительность : 1 ч. 34 м.
Вид битрейта : Постоянный
Битрейт : 384 Кбит/сек
Каналы : 6 каналов
Расположение каналов : Front: L C R, Side: L R, LFE
Частота : 48,0 КГц
Частота кадров : 31,250 кадров/сек (1536 spf)
Метод сжатия : С потерями
Размер потока : 259 Мбайт (3%)
Язык : English
Default : Нет
Forced : Нет
Текст #1
Идентификатор : 5
Формат : UTF-8
Идентификатор кодека : S_TEXT/UTF8
Идентификатор кодека/Информация : UTF-8 Plain Text
Заголовок : Full
Язык : Russian
Default : Нет
Forced : Нет
Текст #2
Идентификатор : 6
Формат : UTF-8
Идентификатор кодека : S_TEXT/UTF8
Идентификатор кодека/Информация : UTF-8 Plain Text
Заголовок : Full
Язык : English
Default : Нет
Forced : Нет
Текст #3
Идентификатор : 7
Формат : UTF-8
Идентификатор кодека : S_TEXT/UTF8
Идентификатор кодека/Информация : UTF-8 Plain Text
Заголовок : SDH
Язык : English
Default : Нет
Forced : Нет
Меню
00:00:00.000 : en:00:00:00.000
00:00:00.375 : en:00:00:00.375
00:11:09.836 : en:00:11:09.836
00:22:45.364 : en:00:22:45.364
00:33:44.689 : en:00:33:44.689
00:44:12.483 : en:00:44:12.483
00:56:34.391 : en:00:56:34.391
01:09:17.403 : en:01:09:17.403
01:20:55.517 : en:01:20:55.517



_________________
Проголосуй за трекер Открытый торрент трекер - RUS-MEDIA.ORG

Проголосуй Открытый торрент трекер - RUS-MEDIA.ORG


Вернуться к началу
 Профиль Отправить личное сообщение  
 
   Похожие торренты   Автор   Торрент   Размер 
В этой теме нет новых непрочитанных сообщений. Куб 2: Гиперкуб / Cube 2: Hypercube [триллер, ужасы, фантастика, детектив, 2002] BDRip, Dvo

salma3

106 | 38

1.46 ГБ

В этой теме нет новых непрочитанных сообщений. Куб 2: Гиперкуб / Cube 2: Hypercube [фантастика, триллер, 2002] BDRip-AVC, Dvo

salma3

78 | 21

745.36 МБ

В этой теме нет новых непрочитанных сообщений. Куб 2: Гиперкуб / Cube 2: Hypercube [триллер, научная фантастика, 2002] BDRip 720p, Dvo

salma3

84 | 77

4.7 ГБ

В этой теме нет новых непрочитанных сообщений. Куб 2: Гиперкуб / Cube 2: Hypercube [триллер, научная фантастика, 2002] BDRip 720p, Dvo

salma3

41 | 30

3.47 ГБ

В этой теме нет новых непрочитанных сообщений. Куб 2: Гиперкуб / Cube 2: Hypercube [триллер, научная фантастика, 2002] BDRemux 1080p, Dvo

salma3

93 | 52

18.38 ГБ

В этой теме нет новых непрочитанных сообщений. Куб Ноль / Cube Zero [ужасы, фантастика, триллер, драма, 2004] BDRip 1080p, Mvo+Sub

salma3

110 | 23

7.27 ГБ

В этой теме нет новых непрочитанных сообщений. Куб Зеро / Cube Zero [ужасы, фантастика, триллер, 2004] HDRip-AVC, Mvo

salma3

91 | 24

744.54 МБ


Начать новую тему Ответить на тему  [ 1 сообщение ] 




Для Мосгорсуда, Роскомнадзора и рекламодателей:: mosgorsud-torrent[собачка]yandex.ru
cron