Торрент файл
скачать торрент магнет ссылка Добавлен: 19 мар 2016, 12:54
Размер: 16.06 ГБ
Сидеров: 108
Личеров: 37
Автор

СообщениеДобавлено: 19 мар 2016, 12:54 

Не в сети
Супермодератор
Аватара пользователя
Дата регистрации:
15 фев 2012, 16:44
Возраст: 29
Спасибо: 7328 / 2147
Сообщения: 73737
Год выпуска: 2007
Жанр: Драма, мелодрама, экранизация
Выпущено: США, Alcon Entertainment, Grosvenor Park, Wendy Finerman
Режиссер: Ричард ЛаГравенес

В ролях: Хилари Суэнк, Джерард Батлер, Кэти Бэйтс, Джина Гершон, Лиза Кудроу, Джеффри Дин Морган,

О фильме: Супруги Джерри (Батлер) и Холли (Суэнк) безумно любят друг друга и верят, что проживут долгую и счастливую жизнь. Но судьба распоряжается иначе – и Холли остается молодой вдовой. Жизнь теряет для нее всякий смысл, молодая женщина впадает в глубокую депрессию и находится на грани помешательства. И в этот тяжелейший момент ей на помощь приходит... Джерри. Прекрасно зная свою жену и предвидя, в каком состоянии она будет находиться после его смерти, Джерри оставляет ей 10 удивительных посланий, которые должны помочь Холли оправиться от горя и вернуться к жизни, ведь его любовь - сильнее смерти...



Качество: BDRip 1080p
Видео: MPEG-4 AVC, 12000 Кбит/с, 1920x1080, 23.976 кадр/с
Аудио 1: Русский DTS 5.1, 48 kHz, 24 bit, 755 kbps - DUB (студия Пифагор)
Аудио 2: Русский AC3 5.1, 48 kHz, 384 kbps - MVO (INTERFILM)
Аудио 3: Русский DTS 5.1, 48 kHz, 16 bit, 1509 kbps - AVO (Юрий Немахов)
Аудио 4: Русский DTS 5.1, 48 kHz, 16 bit, 1509 kbps - VO (Александр Дасевич)
Аудио 5: Русский AC3 2.0, 48 kHz, 192 kbps - VO (Владимир Колосов - Vova Mnemic)
Аудио 6: Украинский AC3 5.1, 48 kHz, 384 kbps - DUB
Продолжительность: 02:06:02
Перевод: Дублированный, профессиональный многоголосый, авторский, любительский одноголосый
Субтитры: Русские, английские
Семпл
General
Unique ID : 210240558323116452196806632558809367851 (0x9E2ADBD2727601FFBD4780904328C52B)
Complete name : B:P.S.I.Love.You.2007.BDRip.1080p-ylnian.mkv
Format : Matroska
Format version : Version 4 / Version 2
File size : 16.1 GiB
Duration : 2h 6mn
Overall bit rate : 18.2 Mbps
Movie name : P.S.I.Love.You.2007.BDRip.1080p-ylnian
Encoded date : UTC 2016-03-18 04:51:05
Writing application : mkvmerge v8.3.0 ('Over the Horizon') 64bit
Writing library : libebml v1.3.1 + libmatroska v1.4.2
Video
ID : 1
Format : AVC
Format/Info : Advanced Video Codec
Format profile : High@L4.1
Format settings, CABAC : Yes
Format settings, ReFrames : 4 frames
Codec ID : V_MPEG4/ISO/AVC
Duration : 2h 6mn
Bit rate : 12.0 Mbps
Width : 1 920 pixels
Height : 1 080 pixels
Display aspect ratio : 16:9
Frame rate mode : Constant
Frame rate : 23.976 (24000/1001) fps
Color space : YUV
Chroma subsampling : 4:2:0
Bit depth : 8 bits
Scan type : Progressive
Bits/(Pixel*Frame) : 0.241
Stream size : 10.2 GiB (64%)
Title : P.S.I.Love.You.2007.BDRip.1080p-ylnian
Writing library : x264 core 148 r2638 7599210
Encoding settings : cabac=1 / ref=4 / deblock=1:-3:-3 / analyse=0x3:0x133 / me=umh / subme=11 / psy=1 / psy_rd=1.05:0.15 / mixed_ref=1 / me_range=48 / chroma_me=1 / trellis=2 / 8x8dct=1 / cqm=0 / deadzone=21,11 / fast_pskip=1 / chroma_qp_offset=-5 / threads=12 / lookahead_threads=3 / sliced_threads=0 / nr=0 / decimate=1 / interlaced=0 / bluray_compat=0 / constrained_intra=0 / bframes=10 / b_pyramid=2 / b_adapt=2 / b_bias=0 / direct=2 / weightb=1 / open_gop=0 / weightp=1 / keyint=240 / keyint_min=1 / scenecut=40 / intra_refresh=0 / rc_lookahead=140 / rc=2pass / mbtree=1 / bitrate=12000 / ratetol=1.0 / qcomp=0.65 / qpmin=0 / qpmax=69 / qpstep=4 / cplxblur=20.0 / qblur=0.5 / vbv_maxrate=62500 / vbv_bufsize=78125 / nal_hrd=none / filler=0 / ip_ratio=1.40 / aq=2:1.00
Language : English
Default : Yes
Forced : Yes
Audio #1
ID : 2
Format : DTS
Format/Info : Digital Theater Systems
Mode : 16
Format settings, Endianness : Big
Codec ID : A_DTS
Duration : 2h 6mn
Bit rate mode : Constant
Bit rate : 755 Kbps
Channel(s) : 6 channels
Channel positions : Front: L C R, Side: L R, LFE
Sampling rate : 48.0 KHz
Frame rate : 93.750 fps (512 spf)
Bit depth : 24 bits
Compression mode : Lossy
Stream size : 680 MiB (4%)
Title : DUB (DTS 5.1 755 kbps)
Language : Russian
Default : Yes
Forced : Yes
Audio #2
ID : 3
Format : AC-3
Format/Info : Audio Coding 3
Mode extension : CM (complete main)
Format settings, Endianness : Big
Codec ID : A_AC3
Duration : 2h 6mn
Bit rate mode : Constant
Bit rate : 384 Kbps
Channel(s) : 6 channels
Channel positions : Front: L C R, Side: L R, LFE
Sampling rate : 48.0 KHz
Frame rate : 31.250 fps (1536 spf)
Compression mode : Lossy
Stream size : 346 MiB (2%)
Title : MVO (AC3 5.1 384 kbps)
Language : Russian
Default : No
Forced : No
Audio #3
ID : 4
Format : DTS
Format/Info : Digital Theater Systems
Mode : 16
Format settings, Endianness : Big
Codec ID : A_DTS
Duration : 2h 6mn
Bit rate mode : Constant
Bit rate : 1 509 Kbps
Channel(s) : 6 channels
Channel positions : Front: L C R, Side: L R, LFE
Sampling rate : 48.0 KHz
Frame rate : 93.750 fps (512 spf)
Bit depth : 16 bits
Compression mode : Lossy
Stream size : 1.33 GiB (8%)
Title : AVO (Немахов) (DTS 5.1 1509 kbps)
Language : Russian
Default : No
Forced : No
Audio #4
ID : 5
Format : DTS
Format/Info : Digital Theater Systems
Mode : 16
Format settings, Endianness : Big
Codec ID : A_DTS
Duration : 2h 6mn
Bit rate mode : Constant
Bit rate : 1 509 Kbps
Channel(s) : 6 channels
Channel positions : Front: L C R, Side: L R, LFE
Sampling rate : 48.0 KHz
Frame rate : 93.750 fps (512 spf)
Bit depth : 16 bits
Compression mode : Lossy
Stream size : 1.33 GiB (8%)
Title : VO (Дасевич) (DTS 5.1 1509 kbps)
Language : Russian
Default : No
Forced : No
Audio #5
ID : 6
Format : AC-3
Format/Info : Audio Coding 3
Mode extension : CM (complete main)
Format settings, Endianness : Big
Codec ID : A_AC3
Duration : 2h 6mn
Bit rate mode : Constant
Bit rate : 192 Kbps
Channel(s) : 2 channels
Channel positions : Front: L R
Sampling rate : 48.0 KHz
Frame rate : 31.250 fps (1536 spf)
Compression mode : Lossy
Stream size : 173 MiB (1%)
Title : VO (AC3 2.0 192 kbps)
Language : Russian
Default : No
Forced : No
Audio #6
ID : 7
Format : AC-3
Format/Info : Audio Coding 3
Mode extension : CM (complete main)
Format settings, Endianness : Big
Codec ID : A_AC3
Duration : 2h 6mn
Bit rate mode : Constant
Bit rate : 384 Kbps
Channel(s) : 6 channels
Channel positions : Front: L C R, Side: L R, LFE
Sampling rate : 48.0 KHz
Frame rate : 31.250 fps (1536 spf)
Compression mode : Lossy
Stream size : 346 MiB (2%)
Title : DUB (AC3 5.1 384 kbps)
Language : Ukrainian
Default : No
Forced : No
Audio #7
ID : 8
Format : DTS
Format/Info : Digital Theater Systems
Mode : 16
Format settings, Endianness : Big
Codec ID : A_DTS
Duration : 2h 6mn
Bit rate mode : Constant
Bit rate : 1 509 Kbps
Channel(s) : 6 channels
Channel positions : Front: L C R, Side: L R, LFE
Sampling rate : 48.0 KHz
Frame rate : 93.750 fps (512 spf)
Bit depth : 16 bits
Compression mode : Lossy
Stream size : 1.33 GiB (8%)
Title : DTS 5.1 1509 kbps
Language : English
Default : No
Forced : No
Text #1
ID : 9
Format : UTF-8
Codec ID : S_TEXT/UTF8
Codec ID/Info : UTF-8 Plain Text
Language : Russian
Default : No
Forced : No
Text #2
ID : 10
Format : UTF-8
Codec ID : S_TEXT/UTF8
Codec ID/Info : UTF-8 Plain Text
Language : Russian
Default : No
Forced : No
Text #3
ID : 11
Format : UTF-8
Codec ID : S_TEXT/UTF8
Codec ID/Info : UTF-8 Plain Text
Language : English
Default : No
Forced : No
Menu
00:00:00.000 : en:00:00:00.000
00:05:17.983 : en:00:05:17.983
00:10:18.618 : en:00:10:18.618
00:13:44.657 : en:00:13:44.657
00:22:36.689 : en:00:22:36.689
00:25:46.044 : en:00:25:46.044
00:28:47.058 : en:00:28:47.058
00:32:00.251 : en:00:32:00.251
00:37:40.925 : en:00:37:40.925
00:42:15.532 : en:00:42:15.532
00:47:17.333 : en:00:47:17.333
00:50:23.853 : en:00:50:23.853
00:53:07.518 : en:00:53:07.518
00:57:25.775 : en:00:57:25.775
01:00:37.132 : en:01:00:37.132
01:03:41.483 : en:01:03:41.483
01:09:06.641 : en:01:09:06.641
01:13:46.756 : en:01:13:46.756
01:19:05.573 : en:01:19:05.573
01:22:39.621 : en:01:22:39.621
01:25:45.474 : en:01:25:45.474
01:29:03.671 : en:01:29:03.671
01:36:34.454 : en:01:36:34.454
01:41:54.442 : en:01:41:54.442
01:45:46.172 : en:01:45:46.172
01:51:43.029 : en:01:51:43.029
01:57:55.902 : en:01:57:55.902
02:00:46.238 : en:02:00:46.238

Релиз от: ylnian


_________________
Проголосуй за трекер Открытый торрент трекер - RUS-MEDIA.ORG

Проголосуй Открытый торрент трекер - RUS-MEDIA.ORG


Вернуться к началу
 Профиль Отправить личное сообщение  
 
   Похожие торренты   Автор   Торрент   Размер 
В этой теме нет новых непрочитанных сообщений. Кажется, я люблю свою жену / I Think I Love My Wife [Комедия, мелодрама, драма, 2007] WEB-DL 1080pMvo

salma3

0 | 1

8.84 ГБ

В этой теме нет новых непрочитанных сообщений. На исходе дня / The Remains Of The Day [Драма, мелодрама, экранизация, 1993] BDRip 1080p, Mvo

salma3

3 | 0

11 ГБ

В этой теме нет новых непрочитанных сообщений. Майна / Maina [Приключения, драма, мелодрама, экранизация, 2013] BDRip 1080p, Avo+Sub

salma3

47 | 49

8.56 ГБ

В этой теме нет новых непрочитанных сообщений. Завет любви / Love's Enduring Promise [Драма, мелодрама, экранизация, 2004] WEB-DLRip 720p, Mvo

salma3

0 | 0

2.99 ГБ

В этой теме нет новых непрочитанных сообщений. Я люблю Новый год / I Love New Year [мелодрама, 2015] WEBDLRip, Mvo

salma3

56 | 14

1.47 ГБ

В этой теме нет новых непрочитанных сообщений. Я люблю Новый год / I love New Year (Радхика Рао) [2015, мелодрама, HDTVRip] dvo

Nickolas3435

404 | 18

2.16 ГБ

В этой теме нет новых непрочитанных сообщений. Война и Мир / War & Peace (Сезон 1, Серия 1-6 из 6) (Том Харпер) [2016 , Драма, мелодрама, военный, история, экранизация , BDRip 1080p] [MVO] [LostFilm , English ] [DD5.1] + [Subs Rus , Eng]

Враг Нароода

0 | 0

25.85 ГБ


Начать новую тему Ответить на тему  [ 1 сообщение ] 




Для Мосгорсуда, Роскомнадзора и рекламодателей:: mosgorsud-torrent[собачка]yandex.ru
cron