Торрент файл
скачать торрент магнет ссылка Добавлен: 15 мар 2016, 12:37
Размер: 6.79 ГБ
Сидеров: 13
Личеров: 5
Автор

СообщениеДобавлено: 15 мар 2016, 12:37 

Не в сети
Супермодератор
Аватара пользователя
Дата регистрации:
15 фев 2012, 16:44
Возраст: 28
Спасибо: 6593 / 2145
Сообщения: 44239
Год выхода: 1986
Жанр: фантастика, приключения, семейный, военный
Режиссер: Джон Хаф

В ролях: Нил Диксон, Алекс Хайд-Вайт, Фиона Хатчинсон, Питер Кушинг, Маркус Гилберт, Уильям Хуткинс, Алан Полонски, Франческа Гоншо, Майкл Сиберри, Джеймс Сэксон

О фильме:
Что делать, если вы оказались временным близнецом прославленного аса Первой мировой войны, и вас постоянно в самые неожиданные моменты отбрасывает в 1917 год и возвращает в настоящее? Вам ничего не остается, как возложить на себя сверхзадачу помочь английским войскам уничтожить секретное оружие немцев в 1917-м и спасать себя и Бигглза от полиции в настоящем.



Страна: США, Великобритания
Студия: Compact Yellowbill, Tambarle
Продолжительность: 01:32:22
Перевод: Профессиональный (многоголосый закадровый) R5
Авторский (одноголосый закадровый) Андрей Гаврилов

Файл
Кодек: H.264
Качество: BDRip 720р от SuperMin
Видео: 1280x688 (1.85:1), 8390 kbps, 24.000 fps
Звук:
Русский (AC-3, 6ch, 448 kbps) R5
Русский (AC-3, 2ch, 160 kbps) Андрей Гаврилов
Оригинал (PCM, 2ch, 1536 kbps)
General
Unique ID : 234590308971606656725877094959905254039 (0xB07C7337DCD99E38A32BBC13ADA42A97)
Complete name : D:ФИЛЬМЫБигглз-Приключения.во.времени.1986.x264.BDRip.720p.MVO.mkv
Format : Matroska
Format version : Version 4 / Version 2
File size : 6.79 GiB
Duration : 1h 32mn
Overall bit rate : 10.5 Mbps
Movie name : Бигглз: Приключения во времени - rip by LORDKILL
Encoded date : UTC 2016-03-14 13:38:58
Writing application : mkvmerge v8.3.0 ('Over the Horizon') 64bit
Writing library : libebml v1.3.1 + libmatroska v1.4.2
Video
ID : 1
Format : AVC
Format/Info : Advanced Video Codec
Format profile : High@L4.1
Format settings, CABAC : Yes
Format settings, ReFrames : 9 frames
Codec ID : V_MPEG4/ISO/AVC
Duration : 1h 32mn
Bit rate : 8 390 Kbps
Width : 1 280 pixels
Height : 688 pixels
Display aspect ratio : 1.85:1
Frame rate mode : Constant
Frame rate : 24.000 fps
Color space : YUV
Chroma subsampling : 4:2:0
Bit depth : 8 bits
Scan type : Progressive
Bits/(Pixel*Frame) : 0.397
Stream size : 5.41 GiB (80%)
Writing library : x264 core 146 r2538 121396c
Encoding settings : cabac=1 / ref=9 / deblock=1:-1:-1 / analyse=0x3:0x113 / me=umh / subme=10 / psy=1 / psy_rd=1.00:0.20 / mixed_ref=1 / me_range=32 / chroma_me=1 / trellis=2 / 8x8dct=1 / cqm=0 / deadzone=21,11 / fast_pskip=0 / chroma_qp_offset=-3 / threads=12 / lookahead_threads=2 / sliced_threads=0 / nr=0 / decimate=0 / interlaced=0 / bluray_compat=0 / constrained_intra=0 / bframes=8 / b_pyramid=2 / b_adapt=2 / b_bias=0 / direct=3 / weightb=1 / open_gop=0 / weightp=2 / keyint=240 / keyint_min=23 / scenecut=40 / intra_refresh=0 / rc_lookahead=40 / rc=2pass / mbtree=0 / bitrate=8390 / ratetol=1.0 / qcomp=0.60 / qpmin=0 / qpmax=69 / qpstep=4 / cplxblur=20.0 / qblur=0.5 / vbv_maxrate=14000 / vbv_bufsize=14000 / nal_hrd=none / filler=0 / ip_ratio=1.40 / pb_ratio=1.30 / aq=1:1.00
Default : Yes
Forced : No
Audio #1
ID : 2
Format : AC-3
Format/Info : Audio Coding 3
Mode extension : CM (complete main)
Format settings, Endianness : Big
Codec ID : A_AC3
Duration : 1h 32mn
Bit rate mode : Constant
Bit rate : 448 Kbps
Channel(s) : 6 channels
Channel positions : Front: L C R, Side: L R, LFE
Sampling rate : 48.0 KHz
Frame rate : 31.250 fps (1536 spf)
Compression mode : Lossy
Stream size : 296 MiB (4%)
Title : Многоголосый, R5
Language : Russian
Default : Yes
Forced : No
Audio #2
ID : 3
Format : AC-3
Format/Info : Audio Coding 3
Mode extension : CM (complete main)
Format settings, Endianness : Big
Codec ID : A_AC3
Duration : 1h 32mn
Bit rate mode : Constant
Bit rate : 160 Kbps
Channel(s) : 2 channels
Channel positions : Front: L R
Sampling rate : 48.0 KHz
Frame rate : 31.250 fps (1536 spf)
Compression mode : Lossy
Stream size : 106 MiB (2%)
Title : VO Гаврилов
Language : Russian
Default : No
Forced : No
Audio #3
ID : 4
Format : PCM
Codec ID : A_PCM/INT/LIT
Duration : 1h 32mn
Bit rate mode : Constant
Bit rate : 1 536 Kbps
Channel(s) : 2 channels
Sampling rate : 48.0 KHz
Frame rate : 32.000 fps (1500 spf)
Bit depth : 16 bits
Stream size : 1 014 MiB (15%)
Language : English
Default : No
Forced : No
Menu
00:00:00.000 : en:00:00:00.000
00:02:30.833 : en:00:02:30.833
00:04:52.542 : en:00:04:52.542
00:11:54.042 : en:00:11:54.042
00:22:05.208 : en:00:22:05.208
00:32:09.125 : en:00:32:09.125
00:39:25.625 : en:00:39:25.625
00:47:27.833 : en:00:47:27.833
00:50:46.792 : en:00:50:46.792
00:58:23.417 : en:00:58:23.417
01:06:23.792 : en:01:06:23.792
01:13:34.667 : en:01:13:34.667
01:19:20.917 : en:01:19:20.917
01:29:43.250 : en:01:29:43.250


_________________
Проголосуй за трекер Открытый торрент трекер - RUS-MEDIA.ORG

Проголосуй Открытый торрент трекер - RUS-MEDIA.ORG



реклама партнёра


Вернуться к началу
 Профиль Отправить личное сообщение  
 
   Похожие торренты   Автор   Торрент   Размер 
В этой теме нет новых непрочитанных сообщений. Бигглз: Приключения во времени / Biggles: Adventures in Time [Фантастика, приключения, 1986] BDRip 1080p, Mvo+Avo

salma3

111 | 34

7.96 ГБ

В этой теме нет новых непрочитанных сообщений. Медведь Йоги / Yogi Bear [Мультфильм, комедия, приключения, семейный, 2010] BDRip 720р, Dub

salma3

0 | 0

4.1 ГБ

В этой теме нет новых непрочитанных сообщений. Лабиринт / Labyrinth [мюзикл, фэнтези, приключения, семейный, 1986] BDRip 1080p, 3Mvo+3Avo

salma3

62 | 46

8.8 ГБ

В этой теме нет новых непрочитанных сообщений. Большой и добрый великан / The BFG [Фэнтези, экранизация, приключения, семейный, 2016] BDRip 720р, Dub [чистый звук]

salma3

1773 | 365

4.62 ГБ

В этой теме нет новых непрочитанных сообщений. Папина дочка / College Road Trip [Комедия, драма, приключения, семейный, 2008] BDRip 720р, Mvo+Sub

salma3

52 | 7

4.79 ГБ

В этой теме нет новых непрочитанных сообщений. Золушка / Cinderella (Кеннет Брана) [фэнтези, драма, мелодрама, приключения, семейный, 2015] BDRip 720р, Dub+Sub [Лицензия]

Dracon

525 | 21

4.37 ГБ

В этой теме нет новых непрочитанных сообщений. Пришельцы в Америке / Just Visiting [Фантастика, комедия, приключения, 2001] BDRip 720р, Dub+Avo+Sub

salma3

13 | 4

8.97 ГБ


Начать новую тему Ответить на тему  [ 1 сообщение ] 




Для Мосгорсуда, Роскомнадзора и рекламодателей:: mosgorsud-torrent[собачка]yandex.ru