Торрент файл
скачать торрент магнет ссылка Добавлен: 13 мар 2016, 22:11
Размер: 10.05 ГБ
Сидеров: 107
Личеров: 29
Автор

СообщениеДобавлено: 13 мар 2016, 22:11 

Не в сети
Супермодератор
Аватара пользователя
Дата регистрации:
15 фев 2012, 16:44
Возраст: 28
Спасибо: 7290 / 2147
Сообщения: 70618
Год выхода: 2005
Жанр: боевик, драма, криминал
Режиссер: Джон Синглтон

В ролях: Марк Уолберг, Тайриз Гибсон, Андре Бенджамин, Гаррет Хедлунд, Терренс Дэшон Ховард, Джош Чарльз, София Вергара, Фионнула Флэнеган, Чиветель Эджиофор
О фильме: Четверо приемных сыновей женщины, которая была убита во время ограбления бакалейной лавки, собираются на ее похоронах и решают найти виновного в гибели их матери. Разыскивая убийцу, четверо мстителей начинают понимать, что действуя столь отсталыми методами, они в итоге навлекут на себя большие неприятности. Чем больше братья занимаются поисками, тем ближе они становятся друг другу, осознавая, что родство душ связывает людей гораздо крепче, чем кровные узы.

Страна: США
Продолжительность: 01:48:46
Перевод: Профессиональный (дублированный), Профессиональный (многоголосый закадровый) Киномания, Профессиональный (двухголосый закадровый) Tycoon, Авторский (одноголосый закадровый) Немахов



Файл
Кодек: MPEG-4 AVC
Качество: BDRip 1080p
Видео: 10 Мбит/с, 1920х816
Звук: Русский (AC3, 6 ch, 384 Кбит/с), Русский (AC3, 6 ch, 384 Кбит/с), Русский (AC3, 6 ch, 448 Кбит/с), Русский (AC3, 6 ch, 448 Кбит/с), Английский (DTS, 6 ch, 1509 Кбит/с)
Субтитры: Русские, Английские

Семпл


Общее
Уникальный идентификатор : 173157279246697503017410558381420336511 (0x8244E100D5A2E834AB68F522C722557F)
Полное имя : D:КиноКровь.за.кровь.2005.BDRip.1080p.Rus.Eng.mkv
Формат : Matroska
Версия формата : Version 4 / Version 2
Размер файла : 10,0 Гбайт
Продолжительность : 1 ч. 48 м.
Общий поток : 13,2 Мбит/сек
Дата кодирования : UTC 2016-03-11 08:26:17
Программа кодирования : mkvmerge v8.2.0 ('World of Adventure') 64bit
Библиотека кодирования : libebml v1.3.1 + libmatroska v1.4.2
DURATION : 01:44:12.914000000
NUMBER_OF_FRAMES : 1607
NUMBER_OF_BYTES : 87230
_STATISTICS_WRITING_APP : mkvmerge v8.2.0 ('World of Adventure') 64bit
_STATISTICS_WRITING_DATE_UTC : 2016-03-11 08:26:17
_STATISTICS_TAGS : BPS DURATION NUMBER_OF_FRAMES NUMBER_OF_BYTES
Видео
Идентификатор : 1
Формат : AVC
Формат/Информация : Advanced Video Codec
Профиль формата : High@L4.1
Параметр CABAC формата : Да
Параметр ReFrames формата : 5 кадров
Идентификатор кодека : V_MPEG4/ISO/AVC
Продолжительность : 1 ч. 48 м.
Битрейт : 10,0 Мбит/сек
Ширина : 1920 пикселей
Высота : 816 пикселей
Соотношение сторон : 2,35:1
Режим частоты кадров : Постоянный
Частота кадров : 23,976 кадра/сек
Цветовое пространство : YUV
Субдискретизация насыщенности : 4:2:0
Битовая глубина : 8 бит
Тип развёртки : Прогрессивная
Бит/(Пиксели*Кадры) : 0.268
Размер потока : 7,44 Гбайт (74%)
Библиотека кодирования : x264 core 144 r2525 40bb568
Настройки программы : cabac=1 / ref=5 / deblock=1:-3:-3 / analyse=0x3:0x113 / me=umh / subme=10 / psy=0 / mixed_ref=0 / me_range=48 / chroma_me=1 / trellis=2 / 8x8dct=1 / cqm=0 / deadzone=21,11 / fast_pskip=0 / chroma_qp_offset=3 / threads=12 / lookahead_threads=1 / sliced_threads=0 / nr=0 / decimate=0 / interlaced=0 / bluray_compat=0 / constrained_intra=0 / bframes=12 / b_pyramid=2 / b_adapt=1 / b_bias=0 / direct=1 / weightb=1 / open_gop=1 / weightp=1 / keyint=240 / keyint_min=23 / scenecut=40 / intra_refresh=0 / rc_lookahead=100 / rc=2pass / mbtree=1 / bitrate=10049 / ratetol=1.0 / qcomp=0.60 / qpmin=0 / qpmax=69 / qpstep=4 / cplxblur=20.0 / qblur=0.5 / vbv_maxrate=40000 / vbv_bufsize=48000 / nal_hrd=none / filler=0 / ip_ratio=1.40 / aq=1:1.00
Default : Да
Forced : Нет
Аудио #1
Идентификатор : 2
Формат : AC-3
Формат/Информация : Audio Coding 3
Расширение режима : CM (complete main)
Параметр Endianness формата : Big
Идентификатор кодека : A_AC3
Продолжительность : 1 ч. 48 м.
Вид битрейта : Постоянный
Битрейт : 384 Кбит/сек
Каналы : 6 каналов
Расположение каналов : Front: L C R, Side: L R, LFE
Частота : 48,0 КГц
Битовая глубина : 16 бит
Метод сжатия : С потерями
Размер потока : 299 Мбайт (3%)
Заголовок : Профессиональный (дублированный)
Язык : Russian
Default : Да
Forced : Нет
Аудио #2
Идентификатор : 3
Формат : AC-3
Формат/Информация : Audio Coding 3
Расширение режима : CM (complete main)
Параметр Endianness формата : Big
Идентификатор кодека : A_AC3
Продолжительность : 1 ч. 48 м.
Вид битрейта : Постоянный
Битрейт : 384 Кбит/сек
Каналы : 6 каналов
Расположение каналов : Front: L C R, Side: L R, LFE
Частота : 48,0 КГц
Битовая глубина : 16 бит
Метод сжатия : С потерями
Размер потока : 299 Мбайт (3%)
Заголовок : Профессиональный (многоголосый закадровый) Киномания
Язык : Russian
Default : Нет
Forced : Нет
Аудио #3
Идентификатор : 4
Формат : AC-3
Формат/Информация : Audio Coding 3
Расширение режима : CM (complete main)
Параметр Endianness формата : Big
Идентификатор кодека : A_AC3
Продолжительность : 1 ч. 48 м.
Вид битрейта : Постоянный
Битрейт : 448 Кбит/сек
Каналы : 6 каналов
Расположение каналов : Front: L C R, Side: L R, LFE
Частота : 48,0 КГц
Битовая глубина : 16 бит
Метод сжатия : С потерями
Размер потока : 349 Мбайт (3%)
Заголовок : Профессиональный (двухголосый закадровый) Tycoon
Язык : Russian
Default : Нет
Forced : Нет
Аудио #4
Идентификатор : 5
Формат : AC-3
Формат/Информация : Audio Coding 3
Расширение режима : CM (complete main)
Параметр Endianness формата : Big
Идентификатор кодека : A_AC3
Продолжительность : 1 ч. 48 м.
Вид битрейта : Постоянный
Битрейт : 448 Кбит/сек
Каналы : 6 каналов
Расположение каналов : Front: L C R, Side: L R, LFE
Частота : 48,0 КГц
Битовая глубина : 16 бит
Метод сжатия : С потерями
Размер потока : 349 Мбайт (3%)
Заголовок : Авторский (одноголосый закадровый) Немахов
Язык : Russian
Default : Нет
Forced : Нет
Аудио #5
Идентификатор : 6
Формат : DTS
Формат/Информация : Digital Theater Systems
Режим : 16
Параметр Endianness формата : Big
Идентификатор кодека : A_DTS
Продолжительность : 1 ч. 48 м.
Вид битрейта : Постоянный
Битрейт : 1509 Кбит/сек
Каналы : 6 каналов
Расположение каналов : Front: L C R, Side: L R, LFE
Частота : 48,0 КГц
Битовая глубина : 24 бит
Метод сжатия : С потерями
Размер потока : 1,15 Гбайт (11%)
Заголовок : Оригинал
Язык : English
Default : Нет
Forced : Нет
Текст #1
Идентификатор : 7
Формат : UTF-8
Идентификатор кодека : S_TEXT/UTF8
Идентификатор кодека/Информация : UTF-8 Plain Text
Язык : English
Default : Нет
Forced : Нет
Текст #2
Идентификатор : 8
Формат : UTF-8
Идентификатор кодека : S_TEXT/UTF8
Идентификатор кодека/Информация : UTF-8 Plain Text
Заголовок : Киномания
Язык : Russian
Default : Нет
Forced : Нет
Меню
00:00:00.000 : en:Miss Evelyn
00:07:20.523 : en:Straight-Ish
00:14:00.756 : en:La Vida Loca
00:20:07.289 : en:Can't All Be Saints
00:28:58.987 : en:Upstanding Citizens
00:34:44.123 : en:The Witness
00:39:54.850 : en:Shooters
00:47:54.079 : en:Victor Sweet
00:53:30.749 : en:Chasing Down Leads
01:00:05.727 : en:Betrayals
01:08:34.860 : en:House Call
01:16:31.545 : en:Dirty Uniform
01:25:19.114 : en:Waiting for the Call
01:32:05.394 : en:Take on the Champ
01:41:18.822 : en:Back Home


_________________
Проголосуй за трекер Открытый торрент трекер - RUS-MEDIA.ORG

Проголосуй Открытый торрент трекер - RUS-MEDIA.ORG


Вернуться к началу
 Профиль Отправить личное сообщение  
 
   Похожие торренты   Автор   Торрент   Размер 
В этой теме нет новых непрочитанных сообщений. Просто кровь / Blood Simple [триллер, криминал, 1984] BDRip 1080p, Mvo+Avo+Sub

salma3

151 | 64

9.58 ГБ

В этой теме нет новых непрочитанных сообщений. Рэмбо: Первая кровь / First Blood [боевик, триллер, криминал, 1982] BDRip 720p, Mvo

salma3

0 | 0

6.44 ГБ

В этой теме нет новых непрочитанных сообщений. Кровь невинных / Innocent Blood [ужасы, боевик, мелодрама, 1992] BDRip 1080p, Mvo

salma3

26 | 9

11.08 ГБ

В этой теме нет новых непрочитанных сообщений. Кровь за кровь [Детектив, 1991] SATRip-AVC

salma3

6 | 8

1.83 ГБ

В этой теме нет новых непрочитанных сообщений. Приветствие Джаггера / Кровь героев / The Salute Of The Jugger / The blood of heroes [фантастика, боевик, постапокалипсис, 1989] BDRip-HEVC 1080p, Mvo

salma3

15 | 4

3.56 ГБ

В этой теме нет новых непрочитанных сообщений. Настоящая кровь / True Blood [S07] [фэнтези, триллер, драма, мелодрама, детектив, 2014] BDRip 1080p, Mvo

salma3

13 | 33

45.81 ГБ

В этой теме нет новых непрочитанных сообщений. Рэмбо: Первая кровь 2 / Rambo: First Blood Part II [боевик, триллер, драма, 1985] BDRip 720p, Mvo

salma3

0 | 0

6.52 ГБ


Начать новую тему Ответить на тему  [ 1 сообщение ] 




Для Мосгорсуда, Роскомнадзора и рекламодателей:: mosgorsud-torrent[собачка]yandex.ru
cron