Торрент файл
скачать торрент магнет ссылка Добавлен: 11 мар 2016, 12:55
Размер: 5.18 ГБ
Сидеров: 0
Личеров: 0
Автор

СообщениеДобавлено: 11 мар 2016, 12:55 

Не в сети
Супермодератор
Аватара пользователя
Дата регистрации:
15 фев 2012, 16:44
Возраст: 28
Спасибо: 7290 / 2147
Сообщения: 70618
Производство: США, Morgan Creek Productions, Twentieth Century Fox Film Corporation
Жанр: Боевик, Триллер, Вестерн, Криминал

Режиссер: Кристофер Кэйн
Актеры: Эмилио Эстевес, Кифер Сазерленд, Лу Даймонд Филлипс, Чарли Шин, Дермот Малруни, Кэйси Семашко, Теренс Стэмп, Джек Пэланс, Терри О’Куинн, Шэрон Томас

Описание:
Фильм основанный на биографии известного американского преступника Билли Кида. Джон Танстэлл, образованный англичанин и владелец ранчо в Нью-Мехико, округ Линкольн, нанимает упрямых молодых ковбоев — «Дока», Чавеса, «Дика», «Грязного Стива» и Чарли, которые живут и работают как одна семья. Последним на ранчо приходит Билли. В это время Танстеллу противостоит местный крупный землевладелец — Мёрфи. Их люди регулярно дерутся, и конфликт доходит до убийства англичанина. Билли с товарищами жаждут мести, они просят помощи у друга-юриста Алекса Максвина, который выступает на их стороне и выписывает ордер на арест головорезов Мёрфи. В основе этой истории — реальные события «Линкольнской фермерской войны», которая началась из-за разногласий между выходцами из Англии и Ирландии...



Релиз от: HDReactor

Продолжительность: 01:46:43
Качество видео: BDRip
Перевод: Двуголосый закадровый, авторский х2
Язык субтитров: Английский
Вид субтитров: Вшитые, отключаемые

Видео: MPEG-4 AVC, ~5665 kbps, 1276x720, 23.976 fps
Аудио #1: AC3, 2 ch, 192 kbps - Русский DVO (Екатеринбург Арт)
Отдельные файлы в папке:
Аудио #2: AC3, 6 ch, 448 kbps - AVO (Гаврилов)
Аудио #3: AC3, 2 ch, 192 kbps - AVO (Санаев)
Аудио #4: AC3, 6 ch, 448 kbps - Английский
Код:
Код:
Формат : Matroska
Версия формата : Version 2
Размер файла : 4,37 Гбайт
Продолжительность : 1 ч. 46 м.
Общий поток : 5857 Кбит/сек
Название фильма : ~V ad~
Дата кодирования : UTC 2015-11-26 20:54:43
Программа кодирования : mkvmerge v6.5.0 ('Isn't she lovely') built on Oct 20 2013 12:50:05
Библиотека кодирования : libebml v1.3.0 + libmatroska v1.4.1

Видео
Идентификатор : 1
Формат : AVC
Формат/Информация : Advanced Video Codec
Профиль формата :
Параметр CABAC формата : Да
Параметр ReFrames формата : 10 кадров
Идентификатор кодека : V_MPEG4/ISO/AVC
Продолжительность : 1 ч. 46 м.
Битрейт : 5665 Кбит/сек
Ширина : 1276 пикселей
Высота : 720 пикселей
Соотношение сторон : 16:9
Режим частоты кадров : Постоянный
Частота кадров : 23,976 кадра/сек
Цветовое пространство : YUV
Субдискретизация насыщенности : 4:2:0
Битовая глубина : 8 бит
Тип развёртки : Прогрессивная
Бит/(Пиксели*Кадры) : 0.257
Размер потока : 4,14 Гбайт (95%)
Заголовок : ~V~
Библиотека кодирования : x264 core 148 r2579 73ae2d1
Настройки программы : cabac=1 / ref=10 / deblock=1:-2:-2 / analyse=0x3:0x133 / me=umh / subme=11 / psy=1 / psy_rd=1.05:0.03 / mixed_ref=1 / me_range=32 / chroma_me=1 / trellis=2 / 8x8dct=1 / cqm=0 / deadzone=21,11 / fast_pskip=0 / chroma_qp_offset=-3 / threads=12 / lookahead_threads=1 / sliced_threads=0 / nr=0 / decimate=0 / interlaced=0 / bluray_compat=0 / constrained_intra=0 / bframes=8 / b_pyramid=2 / b_adapt=2 / b_bias=0 / direct=3 / weightb=1 / open_gop=0 / weightp=2 / keyint=240 / keyint_min=23 / scenecut=40 / intra_refresh=0 / rc=2pass / mbtree=0 / bitrate=5665 / ratetol=1.0 / qcomp=0.60 / qpmin=0 / qpmax=69 / qpstep=4 / cplxblur=20.0 / qblur=0.5 / ip_ratio=1.40 / pb_ratio=1.30 / aq=3:0.90
Язык : English
Default : Да
Forced : Нет

Аудио
Идентификатор : 2
Формат : AC-3
Формат/Информация : Audio Coding 3
Расширение режима : CM (complete main)
Параметр Endianness формата : Big
Идентификатор кодека : A_AC3
Продолжительность : 1 ч. 46 м.
Вид битрейта : Постоянный
Битрейт : 192 Кбит/сек
Каналы : 2 канала
Расположение каналов : Front: L R
Частота : 48,0 КГц
Метод сжатия : С потерями
Размер потока : 147 Мбайт (3%)
Заголовок : DVO[Ekaterinburg Art]
Язык : Russian
Default : Да
Forced : Да

Текст
Идентификатор : 3
Формат : UTF-8
Идентификатор кодека : S_TEXT/UTF8
Идентификатор кодека/Информация : UTF-8 Plain Text
Язык : English
Default : Нет
Forced : Нет

Меню
00:00:00.000 : en:Main Title/Not Another Hanging
00:03:50.063 : en:Flotsam and Jetsam
00:06:59.252 : en:Proper Table Manners
00:10:10.985 : en:"Get Ready for Hell"
00:14:02.174 : en:One of Murphy's Boys
00:15:49.323 : en:"Let's Dance"
00:23:01.755 : en:Ambush/Deputized
00:26:11.069 : en:Their First Arrest
00:31:59.626 : en:A Traitor and a Spy
00:36:49.415 : en:John Kinney vs. Billy the Kid
00:38:28.597 : en:Enlightenment Through Peyote
00:44:25.204 : en:Meet Buckshot Roberts
00:50:09.172 : en:The Last of His Tribe
00:55:37.334 : en:The Meaning of Necessary
01:00:05.560 : en:Fun with Sheriff Brady
01:01:46.703 : en:Getting Some Attention
01:05:43.105 : en:Charlie's Last Wish
01:09:25.661 : en:Half Horse, Half Devil
01:12:52.659 : en:The Test of All Tests
01:17:42.449 : en:Surrender to a Wedding
01:23:32.882 : en:Ready for a Massacre
01:30:53.322 : en:Send in the Troops
01:37:48.946 : en:"Now It's Over"
01:43:09.850 : en:End Credits


_________________
Проголосуй за трекер Открытый торрент трекер - RUS-MEDIA.ORG

Проголосуй Открытый торрент трекер - RUS-MEDIA.ORG


Вернуться к началу
 Профиль Отправить личное сообщение  
 
   Похожие торренты   Автор   Торрент   Размер 
В этой теме нет новых непрочитанных сообщений. Молодые стрелки / Young Guns [Боевик, Триллер, Вестерн, Криминал, 1988] HDRip-AVC, Dvo

salma3

19 | 2

2.74 ГБ

В этой теме нет новых непрочитанных сообщений. Молодые стрелки / Young Guns [Боевик, Триллер, Вестерн, Криминал, 1988] Blu-ray 1080p, Dvo+Sub

salma3

1 | 1

21.58 ГБ

В этой теме нет новых непрочитанных сообщений. Молодые стрелки 2 / Young Guns II [Вестерн, Боевик, 1990] HDTVRip-AVC, Mvo

salma3

12 | 5

2.44 ГБ

В этой теме нет новых непрочитанных сообщений. Молодые стрелки 2 / Young Guns II [вестерн, 1990] WEBRip 1080p, Dvo

salma3

13 | 11

10.37 ГБ

В этой теме нет новых непрочитанных сообщений. Крутые стволы / Mean Guns [боевик, триллер, криминал, 1997] BDRip 1080p, Mvo+Sub

salma3

43 | 8

12.33 ГБ

В этой теме нет новых непрочитанных сообщений. Цвета / Colors [боевик, триллер, драма, криминал, 1988] BDRip 720p, Mvo [5 канал]

salma3

2 | 1

5.76 ГБ

В этой теме нет новых непрочитанных сообщений. Посланник смерти / Messenger of Death [боевик, триллер, криминал, 1988] BDRip 720p, Mvo

salma3

22 | 27

6.35 ГБ


Начать новую тему Ответить на тему  [ 1 сообщение ] 




Для Мосгорсуда, Роскомнадзора и рекламодателей:: mosgorsud-torrent[собачка]yandex.ru
cron