Торрент файл
скачать торрент магнет ссылка Добавлен: 08 мар 2016, 17:27
Размер: 4.83 ГБ
Сидеров: 2
Личеров: 1
Автор

СообщениеДобавлено: 08 мар 2016, 17:27 

Не в сети
Супермодератор
Аватара пользователя
Дата регистрации:
15 фев 2012, 16:44
Возраст: 28
Спасибо: 6642 / 2146
Сообщения: 45664
Производство: США, Color Force, Lionsgate, Studio Babelsberg
Жанр: Фантастика, Приключения

Режиссер: Френсис Лоуренс
Продюсер: Нина Джейкобсон, Джон Килик, Сьюзен Коллинз
Актеры: Дженнифер Лоуренс, Джош Хатчерсон, Лиам Хемсворт, Вуди Харрельсон, Дональд Сазерленд, Филип Сеймур Хоффман, Джулианна Мур, Уиллоу Шилдс, Сэм Клафлин, Элизабет Бэнкс

Описание фильма:
Китнисс Эвердин и своенравный Пит Мелларк пытаются выиграть гражданскую войну между самодержавным Капитолием и истерзанными войной районами Панема…


Возраст: 16+ (зрителям, достигшим 16 лет)
Рейтинг MPAA: PG-13 (детям до 13 лет просмотр нежелателен)
Дата мировой премьеры: 4 ноября 2015
Дата российской премьеры: 19 ноября 2015, «WDSSPR»

Продолжительность: 02:16:55
Качество видео: WEB-DL
Перевод: Дублированный (Звук с CamRip)
Вид субтитров: Вшитые отключаемые
Язык субтитров: Английский (Full)

Видео: AVC/H.264, 1912x792 (2.40:1), 4474 kb/s, 23.976 fps
Аудио »1: 48 kHz, AC3 Dolby Digital, 2/0 (L,R) ch, ~192 kbps (Русский)
Аудио »2: 48 kHz, AC3 Dolby Digital, 3/2 (L,C,R,l,r) + LFE ch, ~384 kbps (Английский)
Код:
Общее
Уникальный идентификатор                 : 199729351390528521823440556602666784904 (0x9642794EFE844AE085DC4F23D3841888)
Полное имя                               : D:\Релизы\Голодные.игры.Сойка-пересмешница.Часть.II.2015.WEB-DL.[1080p].nnm-club.mkv
Формат                                   : Matroska
Версия формата                           : Version 2
Размер файла                             : 4,83 Гбайт
Продолжительность                        : 2 ч. 16 м.
Общий поток                              : 5052 Кбит/сек
Название фильма                          : Голодные.игры.Сойка-пересмешница.Часть.II.2015.WEB-DL.[1080p].nnm-club
Дата кодирования                         : UTC 2016-03-08 09:35:08
Программа кодирования                    : mkvmerge v8.3.0 ('Over the Horizon') 64bit
Библиотека кодирования                   : libebml v1.3.1 + libmatroska v1.4.2

Видео
Идентификатор                            : 1
Формат                                   : AVC
Формат/Информация                        : Advanced Video Codec
Профиль формата                          : High@L4
Параметр CABAC формата                   : Да
Параметр ReFrames формата                : 5 кадров
Идентификатор кодека                     : V_MPEG4/ISO/AVC
Продолжительность                        : 2 ч. 16 м.
Битрейт                                  : 4474 Кбит/сек
Ширина                                   : 1912 пикселей
Высота                                   : 792 пикселя
Соотношение сторон                       : 2,40:1
Режим частоты кадров                     : Постоянный
Частота кадров                           : 23,976 (24000/1001) кадра/сек
Цветовое пространство                    : YUV
Субдискретизация насыщенности            : 4:2:0
Битовая глубина                          : 8 бит
Тип развёртки                            : Прогрессивная
Бит/(Пиксели*Кадры)                      : 0.123
Размер потока                            : 4,28 Гбайт (89%)
Заголовок                                : Голодные.игры.Сойка-пересмешница.Часть.II.2015.WEB-DL.[1080p].nnm-club
Язык                                     : English
Default                                  : Да
Forced                                   : Нет
Цветовой диапазон                        : Limited
Основные цвета                           : BT.709
Характеристики трансфера                 : BT.709
Коэффициенты матрицы                     : BT.709

Аудио #1
Идентификатор                            : 2
Формат                                   : AC-3
Формат/Информация                        : Audio Coding 3
Расширение режима                        : CM (complete main)
Параметр Endianness формата              : Big
Идентификатор кодека                     : A_AC3
Продолжительность                        : 2 ч. 16 м.
Вид битрейта                             : Постоянный
Битрейт                                  : 192 Кбит/сек
Каналы                                   : 2 канала
Расположение каналов                     : Front: L R
Частота                                  : 48,0 КГц
Частота кадров                           : 31,250 кадров/сек (1536 spf)
Метод сжатия                             : С потерями
Размер потока                            : 188 Мбайт (4%)
Заголовок                                : CamRip
Язык                                     : Russian
Default                                  : Да
Forced                                   : Нет

Аудио #2
Идентификатор                            : 3
Формат                                   : AC-3
Формат/Информация                        : Audio Coding 3
Расширение режима                        : CM (complete main)
Параметр Endianness формата              : Big
Идентификатор кодека                     : A_AC3
Продолжительность                        : 2 ч. 16 м.
Вид битрейта                             : Постоянный
Битрейт                                  : 384 Кбит/сек
Каналы                                   : 6 каналов
Расположение каналов                     : Front: L C R, Side: L R, LFE
Частота                                  : 48,0 КГц
Частота кадров                           : 31,250 кадров/сек (1536 spf)
Метод сжатия                             : С потерями
Размер потока                            : 376 Мбайт (8%)
Заголовок                                : Original
Язык                                     : English
Default                                  : Нет
Forced                                   : Нет

Текст
Идентификатор                            : 4
Формат                                   : UTF-8
Идентификатор кодека                     : S_TEXT/UTF8
Идентификатор кодека/Информация          : UTF-8 Plain Text
Продолжительность                        : 2 ч. 4 м.
Битрейт                                  : 48 бит/сек
Count of elements                        : 1435
Размер потока                            : 44,5 Кбайт (0%)
Заголовок                                : Full
Язык                                     : English
Default                                  : Нет
Forced                                   : Нет

Меню
00:00:00.000                             : en:1
00:06:57.000                             : en:2
00:12:13.000                             : en:3
00:19:24.000                             : en:4
00:28:14.000                             : en:5
00:33:44.000                             : en:6
00:43:25.000                             : en:7
00:49:57.000                             : en:8
00:59:10.000                             : en:9
01:04:35.000                             : en:10
01:09:22.000                             : en:11
01:17:16.000                             : en:12
01:23:21.000                             : en:13
01:29:52.000                             : en:14
01:37:05.000                             : en:15
01:43:49.000                             : en:16
01:49:02.000                             : en:17
01:53:07.000                             : en:18
01:59:15.000                             : en:19
02:05:28.000                             : en:20
[/center]


_________________
Проголосуй за трекер Открытый торрент трекер - RUS-MEDIA.ORG

Проголосуй Открытый торрент трекер - RUS-MEDIA.ORG



реклама партнёра


Вернуться к началу
 Профиль Отправить личное сообщение  
 
   Похожие торренты   Автор   Торрент   Размер 
В этой теме нет новых непрочитанных сообщений. Голодные игры: Сойка-пересмешница. Часть II / The Hunger Games: Mockingjay - Part 2 [Фантастика, Приключения, 2015] BDRip 1080p 3D-Video, Dub+Sub [CamRip]

salma3

482 | 86

9.16 ГБ

В этой теме нет новых непрочитанных сообщений. Голодные игры: Сойка-пересмешница. Часть II / The Hunger Games: Mockingjay - Part 2 [фантастика, приключения, 2015] HDRip, Dub [Чистый звук]

salma3

3241 | 99

2.06 ГБ

В этой теме нет новых непрочитанных сообщений. Голодные игры: Сойка-пересмешница. Часть II / The Hunger Games: Mockingjay - Part 2 [фантастика, приключения, 2015] HDRip, Dub [чистый звук]

salma3

35 | 2

1.37 ГБ

В этой теме нет новых непрочитанных сообщений. Голодные игры: Сойка-пересмешница. Часть I / The Hunger Games: Mockingjay - Part 1(Френсис Лоуренс) [Фантастика, Приключения, 2014] BDRip 1080p, dub [Чистый звук]

Dracon

40 | 6

8.11 ГБ

В этой теме нет новых непрочитанных сообщений. Голодные игры: Сойка-пересмешница. Часть I / The Hunger Games: Mockingjay - Part 1 (Френсис Лоуренс) [Фантастика, Приключения, 2014] BDRemux 1080p, dub [Чистый звук]

Dracon

12 | 3

16.65 ГБ

В этой теме нет новых непрочитанных сообщений. Голодные игры: Сойка-пересмешница. Часть I / The Hunger Games: Mockingjay - Part 1 (Френсис Лоуренс) [Фантастика, Приключения, 2014] HDRip, dub [Чистый звук]

Dracon

190 | 8

1.46 ГБ

В этой теме нет новых непрочитанных сообщений. Голодные игры: Сойка-пересмешница. Часть I / The Hunger Games: Mockingjay - Part 1 (Френсис Лоуренс) [Фантастика, Приключения, 2014] HDRip, dub [Чистый звук]

Dracon

16 | 2

2.04 ГБ


Начать новую тему Ответить на тему  [ 1 сообщение ] 




Для Мосгорсуда, Роскомнадзора и рекламодателей:: mosgorsud-torrent[собачка]yandex.ru