Торрент файл
скачать торрент магнет ссылка Добавлен: 04 мар 2016, 22:39
Размер: 4.37 ГБ
Сидеров: 23
Личеров: 2
Автор

СообщениеДобавлено: 04 мар 2016, 22:39 

В сети
Супермодератор
Аватара пользователя
Дата регистрации:
15 фев 2012, 16:44
Возраст: 28
Спасибо: 6643 / 2146
Сообщения: 45809
Перевод: Профессиональный (двухголосый)
Субтитры: русские, английские
Формат: BDRip, MKV, H.264, AC3
Страна: США
Режиссер: Роб Райнер
Жанр: драма, мелодрама, комедия
Продолжительность: 01:31:07
Год выпуска: 1985

В ролях: Джон Кьюсак, Дафна Зунига, Энтони Эдвардс, Бойд Гейнс, Тим Роббинс, Лиза Джейн Перски, Вивека Линдфорс, Николетт Шеридан, Марсия Кристи, Роберт Энтони Маркуччи

Описание: Гиб — симпатичный, умный интересный парень с хорошим чувством юмора, но в любви ему не везет. Почему-то девушки, которые учатся с Гибом на первом курсе колледжа, не воспринимают парня всерьёз. На зимние каникулы Гиб собирается поехать к своему другу в Калифорнию, наслушавшись рассказов приятеля о красотке в бикини, так и поджидающей Гиба на берегу. «Она то, что тебе надо!» — Гибу нравится перспектива встречи с такой девушкой, и он отправляется в путь. Неожиданной попутчицей оказывается немного занудная сокурсница-отличница Элисон, которая едет в том же направлении, чтобы повидаться со своим не очень приятным женихом. Элисон и Гиб — две противоположности, которые, как это часто бывает, в пути начинают притягиваться с самыми романтическими последствиями! Дождётся ли красотка в бикини Гиба? Дождется ли жених свою Элисон? Вот в чём вопрос.



Видео: 1920x1080p (16:9), 25 fps, AVC MPEG-4 (X264), , ~6 400 kbps, 0.123 bits/(pixel*frame)
Аудио: Русский: AC-3, 448 kbps, 2ch, 48 kHz [Профессиональный (двухголосый)]







General
Unique ID : 191958975131914522433637851237827456028 (0x9069F42E34AC7609BF8938C19EA3AC1C)
Complete name : D:\torrent\Абсолютно точно - Верняк - The Sure Thing (1985) драма, мелодрама, комедия.mkv
Format : Matroska
Format version : Version 2
File size : 4.37 GiB
Duration : 1h 31mn
Overall bit rate : 6 862 Kbps
Encoded date : UTC 2016-02-22 22:34:44
Writing application : mkvmerge v7.8.0 ('River Man') 32bit built on Apr 3 2015 12:11:22
Writing library : libebml v1.3.1 + libmatroska v1.4.2

Video
ID : 1
Format : AVC
Format/Info : Advanced Video Codec
Format profile :
Format settings, CABAC : Yes
Format settings, ReFrames : 4 frames
Codec ID : V_MPEG4/ISO/AVC
Duration : 1h 31mn
Bit rate : 6 400 Kbps
Width : 1 920 pixels
Height : 1 080 pixels
Display aspect ratio : 16:9
Frame rate mode : Constant
Frame rate : 25.000 fps
Color space : YUV
Chroma subsampling : 4:2:0
Bit depth : 8 bits
Scan type : Progressive
Bits/(Pixel*Frame) : 0.123
Stream size : 4.00 GiB (91%)
Title : Абсолютно точно / Верняк - The Sure Thing (1985)
Writing library : x264 core 146 r2538 121396c
Encoding settings : cabac=1 / ref=4 / deblock=1:-1:-1 / analyse=0x3:0x113 / me=umh / subme=10 / psy=1 / psy_rd=1.00:0.00 / mixed_ref=1 / me_range=32 / chroma_me=1 / trellis=2 / 8x8dct=1 / cqm=0 / deadzone=21,11 / fast_pskip=0 / chroma_qp_offset=-2 / threads=3 / lookahead_threads=1 / sliced_threads=0 / nr=0 / decimate=1 / interlaced=0 / bluray_compat=0 / constrained_intra=0 / bframes=8 / b_pyramid=2 / b_adapt=2 / b_bias=0 / direct=3 / weightb=1 / open_gop=0 / weightp=2 / keyint=240 / keyint_min=24 / scenecut=40 / intra_refresh=0 / rc_lookahead=60 / rc=2pass / mbtree=0 / bitrate=6400 / ratetol=1.0 / qcomp=0.60 / qpmin=0 / qpmax=69 / qpstep=4 / cplxblur=20.0 / qblur=0.5 / vbv_maxrate=14000 / vbv_bufsize=14000 / nal_hrd=none / filler=0 / ip_ratio=1.40 / pb_ratio=1.30 / aq=2:1.00
Language : English
Default : Yes
Forced : No

Audio
ID : 2
Format : AC-3
Format/Info : Audio Coding 3
Mode extension : CM (complete main)
Format settings, Endianness : Big
Codec ID : A_AC3
Duration : 1h 31mn
Bit rate mode : Constant
Bit rate : 448 Kbps
Channel(s) : 2 channels
Channel positions : Front: L R
Sampling rate : 48.0 KHz
Compression mode : Lossy
Stream size : 292 MiB (7%)
Language : Russian
Default : Yes
Forced : No

Text #1
ID : 3
Format : PGS
Muxing mode : zlib
Codec ID : S_HDMV/PGS
Codec ID/Info : Picture based subtitle format used on BDs/HD-DVDs
Language : Russian
Default : Yes
Forced : No

Text #2
ID : 4
Format : PGS
Muxing mode : zlib
Codec ID : S_HDMV/PGS
Codec ID/Info : Picture based subtitle format used on BDs/HD-DVDs
Language : English
Default : No
Forced : No


_________________
Проголосуй за трекер Открытый торрент трекер - RUS-MEDIA.ORG

Проголосуй Открытый торрент трекер - RUS-MEDIA.ORG



реклама партнёра


Вернуться к началу
 Профиль Отправить личное сообщение  
 
   Похожие торренты   Автор   Торрент   Размер 
В этой теме нет новых непрочитанных сообщений. Делай как надо / Do the Right Thing [драма, комедия, 1989] BDRip 1080p, Dvo

salma3

8 | 2

15.08 ГБ

В этой теме нет новых непрочитанных сообщений. Девочки хотят повеселиться / Girls Just Want to Have Fun [мелодрама, комедия, музыка, 1985] BDRip 1080p, Dvo

salma3

16 | 7

9.44 ГБ

В этой теме нет новых непрочитанных сообщений. Моя собачья жизнь / Mitt liv som hund [драма, комедия, 1985] BDRip 1080p, Dub

salma3

14 | 8

11.63 ГБ

В этой теме нет новых непрочитанных сообщений. Делай как надо / Do the Right Thing [драма, комедия, 1989] BDRip 720p, Dvo

salma3

17 | 3

8.09 ГБ

В этой теме нет новых непрочитанных сообщений. Леди-ястреб / Ladyhawke [Фэнтези, мелодрама, приключения, 1985] BDRip-HEVC 1080p, Mvo

salma3

6 | 1

7.22 ГБ

В этой теме нет новых непрочитанных сообщений. Шалопай / Mischief [мелодрама, комедия, 1985] WEBRip 1080p, Dvo+Sub

salma3

30 | 24

8.7 ГБ

В этой теме нет новых непрочитанных сообщений. Нечто / The Thing [ужасы, фантастика, триллер, 1982] BDRip 1080p, Mvo+Sub [лицензия]

salma3

67 | 6

4.37 ГБ


Начать новую тему Ответить на тему  [ 1 сообщение ] 




Для Мосгорсуда, Роскомнадзора и рекламодателей:: mosgorsud-torrent[собачка]yandex.ru