Торрент файл
скачать торрент магнет ссылка Добавлен: 02 мар 2016, 01:01
Размер: 12.82 ГБ
Сидеров: 95
Личеров: 40
Автор

СообщениеДобавлено: 02 мар 2016, 01:01 

Не в сети
Супермодератор
Аватара пользователя
Дата регистрации:
15 фев 2012, 16:44
Возраст: 29
Спасибо: 7377 / 2147
Сообщения: 75902
Год выхода: 1991
Страна: США
Студия: Metro-Goldwyn-Mayer (MGM), Zanuck Company, The
Продолжительность: 02:00:07
Жанр: боевик, триллер, драма, криминал
Режиссер: Лили Фини Занук

В ролях: Джейсон Патрик, Дженнифер Джейсон Ли, Сэм Эллиотт, Макс Перлих, Грегг Оллмэн, Тони Фрэнк, Уильям Сэдлер, Спешл К. МакКрэй, Дэннис Леттс, Деннис Бёркли, ...

Перевод:
Профессиональный (дублированный) Варус Видео
Профессиональный (многоголосый, закадровый) HTB
Профессиональный (двухголосый, закадровый) НТВ+
Авторский (одноголосый, закадровый) Гаврилов Андрей Юрьевич

О фильме: Рэйнор, молодой, но очень опытный секретный агент из Отдела по борьбе с наркотиками, берет себе новую напарницу Кристен, только что закончившую Полицейскую академию. Секретные агенты живут под видом наркоманов, покупают наркотики. Подтверждение ими перед присяжными факта покупки и предъявление «товара» в качестве улики становятся достаточными для обвинения. Беда в том, что во время покупки им самим слишком часто приходится пробовать приобретаемые наркотики, что приводит к наркотической зависимости. Начальство требует, чтобы агенты подготовили арест местного наркобарона Гэйнса, но тот слишком осторожен. Чувствуя, что устал и не может справиться с зависимостью от наркотиков, Рэйнор уговаривает Кристен сфабриковать улики для ареста Гэйнса…



Кодек: x264
Качество: BDRip 1080p
Видео: 1920x1040 , 13000 kbps, 23,976 fps
Аудио #1: AC-3, 2 ch, 192 kbps (Rus) - Dub Варус Видео
Аудио #2: AC-3, 2 ch, 192 kbps (Rus) - MVO HTB
Аудио #3: AC-3, 2 ch, 192 kbps (Rus) - DVO НТВ+
Аудио #4: AC-3, 2 ch, 192 kbps (Rus) - AVO Гаврилов Андрей Юрьевич
Аудио #5: DTS, 6 ch, 1509 kbps (Eng)
Субтитры: Английские

x264 [info]: frame I:955 Avg QP:14.52 size:178318
x264 [info]: frame P:30281 Avg QP:16.70 size:101999
x264 [info]: frame B:141574 Avg QP:18.78 size: 59669
x264 [info]: consecutive B-frames: 1.0% 1.2% 3.9% 8.6% 11.5% 45.6% 8.5% 3.0% 5.6% 1.6% 3.4% 4.2% 2.0%
Общее
Уникальный идентификатор : 251821473040642346261194666113364596768 (0xBD730D32D4B447D38DDE3169481B1820)
Полное имя : Кайф (Rush) 1991 BDRip 1080p.mkv
Формат : Matroska
Версия формата : Version 2
Размер файла : 12,8 Гбайт
Продолжительность : 2 ч. 0 м.
Общий поток : 15,3 Мбит/сек
Дата кодирования : UTC 2016-02-29 17:04:35
Программа кодирования : mkvmerge v4.0.0 ('The Stars were mine') сборка от Jun 6 2010 16:18:42
Библиотека кодирования : libebml v1.0.0 + libmatroska v1.0.0
Видео
Идентификатор : 1
Формат : AVC
Формат/Информация : Advanced Video Codec
Профиль формата : High@L4.1
Параметр CABAC формата : Да
Параметр ReFrames формата : 4 кадра
Идентификатор кодека : V_MPEG4/ISO/AVC
Продолжительность : 2 ч. 0 м.
Битрейт : 13,0 Мбит/сек
Ширина : 1920 пикселей
Высота : 1040 пикселей
Соотношение сторон : 1,85:1
Режим частоты кадров : Постоянный
Частота кадров : 23,976 кадра/сек
Цветовое пространство : YUV
Субдискретизация насыщенности : 4:2:0
Битовая глубина : 8 бит
Тип развёртки : Прогрессивная
Бит/(Пиксели*Кадры) : 0.272
Размер потока : 10,7 Гбайт (83%)
Библиотека кодирования : x264 core 146 r2538 121396c
Настройки программы : cabac=1 / ref=4 / deblock=1:-3:-3 / analyse=0x3:0x133 / me=umh / subme=11 / psy=1 / psy_rd=1.00:0.00 / mixed_ref=1 / me_range=32 / chroma_me=1 / trellis=2 / 8x8dct=1 / cqm=0 / deadzone=21,11 / fast_pskip=0 / chroma_qp_offset=-2 / threads=12 / lookahead_threads=2 / sliced_threads=0 / nr=0 / decimate=0 / interlaced=0 / bluray_compat=0 / constrained_intra=0 / bframes=12 / b_pyramid=2 / b_adapt=2 / b_bias=0 / direct=3 / weightb=1 / open_gop=0 / weightp=2 / keyint=240 / keyint_min=23 / scenecut=40 / intra_refresh=0 / rc=2pass / mbtree=0 / bitrate=13000 / ratetol=1.0 / qcomp=0.60 / qpmin=0 / qpmax=69 / qpstep=4 / cplxblur=20.0 / qblur=0.5 / ip_ratio=1.40 / pb_ratio=1.30 / aq=1:0.80
Язык : English
Default : Нет
Forced : Нет
Аудио #1
Идентификатор : 2
Формат : AC-3
Формат/Информация : Audio Coding 3
Расширение режима : CM (complete main)
Параметр Endianness формата : Big
Идентификатор кодека : A_AC3
Продолжительность : 2 ч. 0 м.
Вид битрейта : Постоянный
Битрейт : 192 Кбит/сек
Каналы : 2 канала
Расположение каналов : Front: L R
Частота : 48,0 КГц
Метод сжатия : С потерями
Размер потока : 165 Мбайт (1%)
Заголовок : Dub Варус Видео
Язык : Russian
Default : Нет
Forced : Нет
Аудио #2
Идентификатор : 3
Формат : AC-3
Формат/Информация : Audio Coding 3
Расширение режима : CM (complete main)
Параметр Endianness формата : Big
Идентификатор кодека : A_AC3
Продолжительность : 2 ч. 0 м.
Вид битрейта : Постоянный
Битрейт : 192 Кбит/сек
Каналы : 2 канала
Расположение каналов : Front: L R
Частота : 48,0 КГц
Метод сжатия : С потерями
Размер потока : 165 Мбайт (1%)
Заголовок : MVO HTB
Язык : Russian
Default : Нет
Forced : Нет
Аудио #3
Идентификатор : 4
Формат : AC-3
Формат/Информация : Audio Coding 3
Расширение режима : CM (complete main)
Параметр Endianness формата : Big
Идентификатор кодека : A_AC3
Продолжительность : 2 ч. 0 м.
Вид битрейта : Постоянный
Битрейт : 192 Кбит/сек
Каналы : 2 канала
Расположение каналов : Front: L R
Частота : 48,0 КГц
Метод сжатия : С потерями
Размер потока : 165 Мбайт (1%)
Заголовок : DVO НТВ+
Язык : Russian
Default : Нет
Forced : Нет
Аудио #4
Идентификатор : 5
Формат : AC-3
Формат/Информация : Audio Coding 3
Расширение режима : CM (complete main)
Параметр Endianness формата : Big
Идентификатор кодека : A_AC3
Продолжительность : 2 ч. 0 м.
Вид битрейта : Постоянный
Битрейт : 192 Кбит/сек
Каналы : 2 канала
Расположение каналов : Front: L R
Частота : 48,0 КГц
Метод сжатия : С потерями
Размер потока : 165 Мбайт (1%)
Заголовок : AVO Гаврилов Андрей Юрьевич
Язык : Russian
Default : Нет
Forced : Нет
Аудио #5
Идентификатор : 6
Формат : DTS
Формат/Информация : Digital Theater Systems
Режим : 16
Параметр Endianness формата : Big
Идентификатор кодека : A_DTS
Продолжительность : 2 ч. 0 м.
Вид битрейта : Постоянный
Битрейт : 1509 Кбит/сек
Каналы : 6 каналов
Расположение каналов : Front: L C R, Side: L R, LFE
Частота : 48,0 КГц
Битовая глубина : 16 бит
Метод сжатия : С потерями
Размер потока : 1,27 Гбайт (10%)
Язык : English
Default : Нет
Forced : Нет
Текст
Идентификатор : 7
Формат : UTF-8
Идентификатор кодека : S_TEXT/UTF8
Идентификатор кодека/Информация : UTF-8 Plain Text
Язык : English
Default : Нет
Forced : Нет



_________________
Проголосуй за трекер Открытый торрент трекер - RUS-MEDIA.ORG

Проголосуй Открытый торрент трекер - RUS-MEDIA.ORG


Вернуться к началу
 Профиль Отправить личное сообщение  
 
   Похожие торренты   Автор   Торрент   Размер 
В этой теме нет новых непрочитанных сообщений. Кайф / Rush [боевик, триллер, драма, 1991] BDRip-AVC, Dub

salma3

74 | 19

1.46 ГБ

В этой теме нет новых непрочитанных сообщений. Кайф / Rush [Боевик, триллер, драма, 1991] BDRemux 1080p, Dub+Mvo+Dvo+Avo+Sub

salma3

37 | 36

20.39 ГБ

В этой теме нет новых непрочитанных сообщений. Кайф / Rush [драма, криминал, 1991] BDRip, Dub

salma3

49 | 14

1.46 ГБ

В этой теме нет новых непрочитанных сообщений. Под подозрением / Under Suspicion [триллер, драма, криминал, 1991] BDRip 1080p, Dvo

salma3

0 | 0

11.8 ГБ

В этой теме нет новых непрочитанных сообщений. Час пик 2 / Rush Hour 2 [боевик, триллер, комедия, 2001] BDRip 1080p, Dub+Mvo+Avo+Sub

salma3

10 | 0

9.33 ГБ

В этой теме нет новых непрочитанных сообщений. Во имя справедливости / Out For Justice [Боевик, триллер, драма, криминал, 1991] BDRip 720p, Dub+Dvo+Mvo+Avo

salma3

16 | 8

5.5 ГБ

В этой теме нет новых непрочитанных сообщений. Во имя справедливости / Out for Justice [Боевик, триллер, драма, 1991] BDRip 1080p, Dub

salma3

0 | 0

8.93 ГБ


Начать новую тему Ответить на тему  [ 1 сообщение ] 




Для Мосгорсуда, Роскомнадзора и рекламодателей:: mosgorsud-torrent[собачка]yandex.ru
cron