Торрент файл
скачать торрент магнет ссылка Добавлен: 25 фев 2016, 04:06
Размер: 1.58 ГБ
Сидеров: 334
Личеров: 42
Автор

СообщениеДобавлено: 25 фев 2016, 04:06 

Не в сети
Супермодератор
Аватара пользователя
Дата регистрации:
15 фев 2012, 16:44
Возраст: 28
Спасибо: 7061 / 2147
Сообщения: 59181
Год выхода: 1994
Жанр: Триллер, мелодрама
Режиссер: Джон Бэйли / John Bailey
В ролях: Эд Харрис, Мэделин Стоу, Бенисио Дель Торо, Чарльз Дэнс, Патриция Хили, Тим Пауэлл, Прюитт Тэйлор Винс, Ларри Шулер, Роб Эдвард Моррис, Пол Дэрби, Тереза Бин, Аллен Принц, Сэм Майерс, Роб Кох
О фильме:
Детектив Кайл Бодайн влюбляется в замужнюю женщину Рэйчел. Она уже не раз хотела бросить избивавшего её мужа. Когда Рэйчел в очередной раз попыталась уйти от него, возникла стычка, во время которой она убивает мужа. Детективу приходится помочь Рэйчел скрыть улики и самому вести расследование этого убийства.



Страна: США
Студия: Tig Productions
Продолжительность: 01:35:28.192
Перевод: Профессиональный (двухголосый, закадровый) MGMHD/НТВ+
Файл
Кодек: h.264
Качество: HDTVRip 720p Исходник HDTV 1080i MGMHD
Видео: 1280x544 (2.35:1), 25.000 fps, AVC, ~1982 Kbps, 0.114 bits/pixel
Звук:
Русский, 48.0 KHz, MP2, 2 ch, 192 Kbps
Английский, 48.0 KHz, AC3, 2 ch, 192 Kbps
Субтитры:
Английские, SRT(UTF-8)
Русские, SRT(UTF-8)
Общее
Уникальный идентификатор : 205454665252987470223110068120144795984 (0x9A91211369E36D1FA04D6751272F5950)
Полное имя : I:FilmsFarforovaya_luna.1994.HDTVRip720p.mkv
Формат : Matroska
Версия формата : Version 4 / Version 2
Размер файла : 1,58 Гбайт
Продолжительность : 1 ч. 35 м.
Общий поток : 2368 Кбит/сек
Дата кодирования : UTC 2016-02-23 05:56:01
Программа кодирования : mkvmerge v8.9.0 ('Father Daughter') 64bit
Библиотека кодирования : libebml v1.3.3 + libmatroska v1.4.4
Видео
Идентификатор : 1
Формат : AVC
Формат/Информация : Advanced Video Codec
Профиль формата : High@L4.1
Параметр CABAC формата : Да
Параметр ReFrames формата : 9 кадров
Идентификатор кодека : V_MPEG4/ISO/AVC
Продолжительность : 1 ч. 35 м.
Битрейт : 1982 Кбит/сек
Ширина : 1280 пикселей
Высота : 544 пикселя
Соотношение сторон : 2,35:1
Режим частоты кадров : Постоянный
Частота кадров : 25,000 кадров/сек
Цветовое пространство : YUV
Субдискретизация насыщенности : 4:2:0
Битовая глубина : 8 бит
Тип развёртки : Прогрессивная
Бит/(Пиксели*Кадры) : 0.114
Размер потока : 1,32 Гбайт (84%)
Библиотека кодирования : x264 core 148 r2638 7599210
Настройки программы : cabac=1 / ref=9 / deblock=1:-3:-3 / analyse=0x3:0x133 / me=umh / subme=11 / psy=1 / psy_rd=1.10:0.15 / mixed_ref=1 / me_range=48 / chroma_me=1 / trellis=2 / 8x8dct=1 / cqm=0 / deadzone=21,11 / fast_pskip=0 / chroma_qp_offset=-3 / threads=8 / lookahead_threads=1 / sliced_threads=0 / nr=0 / decimate=0 / interlaced=0 / bluray_compat=0 / constrained_intra=0 / bframes=7 / b_pyramid=2 / b_adapt=2 / b_bias=0 / direct=3 / weightb=1 / open_gop=0 / weightp=2 / keyint=250 / keyint_min=25 / scenecut=40 / intra_refresh=0 / rc_lookahead=60 / rc=2pass / mbtree=0 / bitrate=1982 / ratetol=1.0 / qcomp=0.60 / qpmin=0 / qpmax=69 / qpstep=4 / cplxblur=20.0 / qblur=0.5 / vbv_maxrate=40000 / vbv_bufsize=50000 / nal_hrd=none / filler=0 / ip_ratio=1.40 / pb_ratio=1.30 / aq=1:1.00
Default : Нет
Forced : Нет
Цветовой диапазон : Limited
Основные цвета : BT.709
Характеристики трансфера : BT.709
Коэффициенты матрицы : BT.709
Аудио #1
Идентификатор : 2
Формат : MPEG Audio
Версия формата : Version 1
Профиль формата : Layer 2
Идентификатор кодека : A_MPEG/L2
Идентификатор кодека/Подсказка : MP2
Продолжительность : 1 ч. 35 м.
Вид битрейта : Постоянный
Битрейт : 192 Кбит/сек
Каналы : 2 канала
Частота : 48,0 КГц
Частота кадров : 41,667 кадра/сек (1152 spf)
Метод сжатия : С потерями
Размер потока : 131 Мбайт (8%)
Язык : Russian
Default : Да
Forced : Нет
Аудио #2
Идентификатор : 3
Формат : AC-3
Формат/Информация : Audio Coding 3
Расширение режима : CM (complete main)
Параметр Endianness формата : Big
Идентификатор кодека : A_AC3
Продолжительность : 1 ч. 35 м.
Вид битрейта : Постоянный
Битрейт : 192 Кбит/сек
Каналы : 2 канала
Расположение каналов : Front: L R
Частота : 48,0 КГц
Частота кадров : 31,250 кадров/сек (1536 spf)
Метод сжатия : С потерями
Размер потока : 131 Мбайт (8%)
Язык : English
Default : Нет
Forced : Нет
Текст #1
Идентификатор : 4
Формат : UTF-8
Идентификатор кодека : S_TEXT/UTF8
Идентификатор кодека/Информация : UTF-8 Plain Text
Продолжительность : 1 ч. 29 м.
Битрейт : 45 бит/сек
Count of elements : 864
Размер потока : 30,0 Кбайт (0%)
Язык : English
Default : Нет
Forced : Нет
Текст #2
Идентификатор : 5
Формат : UTF-8
Идентификатор кодека : S_TEXT/UTF8
Идентификатор кодека/Информация : UTF-8 Plain Text
Продолжительность : 1 ч. 31 м.
Битрейт : 69 бит/сек
Count of elements : 686
Размер потока : 46,3 Кбайт (0%)
Язык : Russian
Default : Нет
Forced : Нет

frame I:983 Avg QP:16.12 size: 63426
frame P:36169 Avg QP:19.05 size: 21968
frame B:106052 Avg QP:21.10 size: 5299

Русские субтитры синхронизированы по речи, существенно переработаны (фактически заново созданы по хорошему переводу НТВ+)


Релиз от: Temperest


_________________
Проголосуй за трекер Открытый торрент трекер - RUS-MEDIA.ORG

Проголосуй Открытый торрент трекер - RUS-MEDIA.ORG


Вернуться к началу
 Профиль Отправить личное сообщение  
 
   Похожие торренты   Автор   Торрент   Размер 
В этой теме нет новых непрочитанных сообщений. Фарфоровая луна / China Moon [триллер, мелодрама, криминал, 1991] BDRip, Dvo [НТВ+]

salma3

39 | 8

1.45 ГБ

В этой теме нет новых непрочитанных сообщений. Фарфоровая луна / China Moon [триллер, мелодрама, криминал, 1991] BDRemux 1080р, Dvo

salma3

9 | 3

18.07 ГБ

В этой теме нет новых непрочитанных сообщений. Горькая луна / Bitter Moon [триллер, драма, мелодрама, 1992] HDRip-AVC, Dub+Sub

salma3

80 | 27

1.47 ГБ

В этой теме нет новых непрочитанных сообщений. Луна пустыни / Mojave Moon [триллер, мелодрама, комедия, 1996] DVDRip,Mvo

salma3

15 | 2

1.45 ГБ

В этой теме нет новых непрочитанных сообщений. Зловещая луна / Bad Moon [ужасы, триллер, драма, детектив, 1996] WEB-DL 720p, Dub+Dvo

salma3

23 | 2

2.65 ГБ

В этой теме нет новых непрочитанных сообщений. Луна в созвездии Скорпиона / Moon in Scorpio [ужасы, 1987] HDTVRip, Dvo

salma3

12 | 4

1.44 ГБ

В этой теме нет новых непрочитанных сообщений. Лживая Луна / Liar's Moon [драма, мелодрама, 1982] DVDRip, Avo

salma3

25 | 9

1.44 ГБ


Начать новую тему Ответить на тему  [ 1 сообщение ] 




Для Мосгорсуда, Роскомнадзора и рекламодателей:: mosgorsud-torrent[собачка]yandex.ru
cron