Торрент файл
скачать торрент магнет ссылка Добавлен: 25 фев 2016, 04:03
Размер: 2.51 ГБ
Сидеров: 164
Личеров: 30
Автор

СообщениеДобавлено: 25 фев 2016, 04:03 

Не в сети
Супермодератор
Аватара пользователя
Дата регистрации:
15 фев 2012, 16:44
Возраст: 28
Спасибо: 6474 / 2129
Сообщения: 41034
Год выхода: 1994
Жанр: драма, биография, история
Режиссер: Николас Хитнер / Nicholas Hytner
В ролях: Найджел Хоторн, Хелен Миррен, Иэн Холм, Энтони Каф, Аманда Донохью, Руперт Грэйвз, Джеффри Палмер, Джулиан Уэдэм, Джон Вуд, Руперт Эверетт, Джим Картер, Роджер Хэммонд, Сирил Шэпс, Селина Кэделл, Пол Корригэн, Питер Вудторп, Мэттью Ллойд Дэвис, Кэролайн Харкер, Джулиан Райнд-Татт, Струан Роджер, Эдриэн Скарборо, Бэрри Стэнтон
О фильме:
Король Англии Георг III благополучно правит страной уже 30 лет… Слишком долгий срок для одного монарха — так считают его взрослые сыновья. За внешним блеском королевского двора скрываются интриги и жестокая борьба за власть…

[/url]

Страна: Великобритания
Студия: Samuel Goldwyn Company, The, Channel Four Films, Close Call Films
Продолжительность: 01:45:39.720
Перевод: Профессиональный (двухголосый закадровый) MGMHD/НТВ+
Авторский одноголосый П.Карцев
Файл
Кодек: h.264
Качество: HDTVRip 720p Исходник HDTV 1080i MGMHD
Видео: 1280x720 (16:9), 25.000 fps, AVC, ~2822 Kbps, 0.122 bits/pixel
Звук:
Русский, 48.0 KHz, AC3, 2 ch, 160 Kbps MGMHD/НТВ+
Русский, 48.0 KHz, AC3, 2 ch, 160 Kbps П. Карцев
Английский, 48.0 KHz, AC3, 2 ch, 256 Kbps
Субтитры: Английские, SRT(UTF-8)
Общее
Уникальный идентификатор : 226991418004218783752399259644672808066 (0xAAC4F4F7BF520C5983087818E8FF1482)
Полное имя : E:FILMSBezumie_Korolya_Georga.1994.HDTVRip720p.mkv
Формат : Matroska
Версия формата : Version 4 / Version 2
Размер файла : 2,51 Гбайт
Продолжительность : 1 ч. 45 м.
Общий поток : 3400 Кбит/сек
Дата кодирования : UTC 2016-02-23 10:23:32
Программа кодирования : mkvmerge v8.9.0 ('Father Daughter') 64bit
Библиотека кодирования : libebml v1.3.3 + libmatroska v1.4.4
Видео
Идентификатор : 1
Формат : AVC
Формат/Информация : Advanced Video Codec
Профиль формата : High@L4.1
Параметр CABAC формата : Да
Параметр ReFrames формата : 9 кадров
Идентификатор кодека : V_MPEG4/ISO/AVC
Продолжительность : 1 ч. 45 м.
Битрейт : 2822 Кбит/сек
Ширина : 1280 пикселей
Высота : 720 пикселей
Соотношение сторон : 16:9
Режим частоты кадров : Постоянный
Частота кадров : 25,000 кадров/сек
Цветовое пространство : YUV
Субдискретизация насыщенности : 4:2:0
Битовая глубина : 8 бит
Тип развёртки : Прогрессивная
Бит/(Пиксели*Кадры) : 0.122
Размер потока : 2,08 Гбайт (83%)
Библиотека кодирования : x264 core 148 r2638 7599210
Настройки программы : cabac=1 / ref=9 / deblock=1:-3:-3 / analyse=0x3:0x133 / me=umh / subme=11 / psy=1 / psy_rd=1.10:0.15 / mixed_ref=1 / me_range=48 / chroma_me=1 / trellis=2 / 8x8dct=1 / cqm=0 / deadzone=21,11 / fast_pskip=0 / chroma_qp_offset=-3 / threads=8 / lookahead_threads=1 / sliced_threads=0 / nr=0 / decimate=0 / interlaced=0 / bluray_compat=0 / constrained_intra=0 / bframes=7 / b_pyramid=2 / b_adapt=2 / b_bias=0 / direct=3 / weightb=1 / open_gop=0 / weightp=2 / keyint=250 / keyint_min=25 / scenecut=40 / intra_refresh=0 / rc_lookahead=60 / rc=2pass / mbtree=0 / bitrate=2822 / ratetol=1.0 / qcomp=0.60 / qpmin=0 / qpmax=69 / qpstep=4 / cplxblur=20.0 / qblur=0.5 / vbv_maxrate=40000 / vbv_bufsize=50000 / nal_hrd=none / filler=0 / ip_ratio=1.40 / pb_ratio=1.30 / aq=1:1.00
Default : Нет
Forced : Нет
Цветовой диапазон : Limited
Основные цвета : BT.709
Характеристики трансфера : BT.709
Коэффициенты матрицы : BT.709
Аудио #1
Идентификатор : 2
Формат : AC-3
Формат/Информация : Audio Coding 3
Расширение режима : CM (complete main)
Параметр Endianness формата : Big
Идентификатор кодека : A_AC3
Продолжительность : 1 ч. 45 м.
Вид битрейта : Постоянный
Битрейт : 160 Кбит/сек
Каналы : 2 канала
Расположение каналов : Front: L R
Частота : 48,0 КГц
Частота кадров : 31,250 кадров/сек (1536 spf)
Метод сжатия : С потерями
Размер потока : 121 Мбайт (5%)
Заголовок : MGMHD/NTV+
Язык : Russian
Default : Да
Forced : Нет
Аудио #2
Идентификатор : 3
Формат : AC-3
Формат/Информация : Audio Coding 3
Расширение режима : CM (complete main)
Параметр Endianness формата : Big
Идентификатор кодека : A_AC3
Продолжительность : 1 ч. 45 м.
Вид битрейта : Постоянный
Битрейт : 160 Кбит/сек
Каналы : 2 канала
Расположение каналов : Front: L R
Частота : 48,0 КГц
Частота кадров : 31,250 кадров/сек (1536 spf)
Метод сжатия : С потерями
Размер потока : 121 Мбайт (5%)
Заголовок : Kartsev
Язык : Russian
Default : Нет
Forced : Нет
Аудио #3
Идентификатор : 4
Формат : AC-3
Формат/Информация : Audio Coding 3
Профиль формата : Dolby Digital
Расширение режима : CM (complete main)
Параметр Endianness формата : Big
Идентификатор кодека : A_AC3
Продолжительность : 1 ч. 45 м.
Вид битрейта : Постоянный
Битрейт : 256 Кбит/сек
Каналы : 2 канала
Расположение каналов : Front: L R
Частота : 48,0 КГц
Частота кадров : 31,250 кадров/сек (1536 spf)
Метод сжатия : С потерями
Размер потока : 193 Мбайт (8%)
Язык : English
Default : Нет
Forced : Нет
Текст
Идентификатор : 5
Формат : UTF-8
Идентификатор кодека : S_TEXT/UTF8
Идентификатор кодека/Информация : UTF-8 Plain Text
Продолжительность : 1 ч. 40 м.
Битрейт : 63 бит/сек
Count of elements : 1543
Размер потока : 47,0 Кбайт (0%)
Язык : English
Default : Нет

frame I:1036 Avg QP:15.96 size: 90980
frame P:40285 Avg QP:18.74 size: 31841
frame B:117172 Avg QP:21.34 size: 7328


Релиз от: Temperest


_________________
Проголосуй за трекер Открытый торрент трекер - RUS-MEDIA.ORG

Проголосуй Открытый торрент трекер - RUS-MEDIA.ORG



реклама партнёра


Вернуться к началу
 Профиль Отправить личное сообщение  
 
   Похожие торренты   Автор   Торрент   Размер 
В этой теме нет новых непрочитанных сообщений. Девушка-король / The Girl King [Драма, мелодрама, биография, история, 2015] BDRip 720p, Avo

salma3

49 | 32

5.6 ГБ

В этой теме нет новых непрочитанных сообщений. Меч короля Артура / King Arthur: Legend of the Sword [фэнтези, боевик, драма, приключения, 2017] BDRip 720p, Dub [Лицензия]

salma3

82 | 9

5.37 ГБ

В этой теме нет новых непрочитанных сообщений. Гнев короля / The Fatal Encounter / King's Wrath [Исторический, 2014] BDRip 720p, avo

Dracon

162 | 53

3.96 ГБ

В этой теме нет новых непрочитанных сообщений. Девушка-король / The Girl King Драма, мелодрама, биография, история[, 2015] BDRip 1080p, Avo

salma3

27 | 5

10.77 ГБ

В этой теме нет новых непрочитанных сообщений. Одна ночь с королем / One Night with the King [драма, биография, история, 2006] BDRip 1080p, Dvo+Sub

salma3

243 | 177

7.78 ГБ

В этой теме нет новых непрочитанных сообщений. В пасти безумия / In The Mouth Of Madness [Ужасы, фэнтези, триллер, 1994] BDRip 720p, Mvo

salma3

64 | 33

4.37 ГБ

В этой теме нет новых непрочитанных сообщений. Голограмма для короля / A Hologram for the King [Комедия, драма, 2016] BDRip, Mvo [iTunes]

salma3

225 | 82

1.42 ГБ


Начать новую тему Ответить на тему  [ 1 сообщение ] 




Для Мосгорсуда, Роскомнадзора и рекламодателей:: mosgorsud-torrent[собачка]yandex.ru