Торрент файл
скачать торрент магнет ссылка Добавлен: 12 фев 2016, 15:42
Размер: 12.73 ГБ
Сидеров: 504
Личеров: 16
Автор

СообщениеДобавлено: 12 фев 2016, 15:42 

Не в сети
Зам. Админа
Аватара пользователя
Дата регистрации:
02 дек 2010, 12:39
Спасибо: 12625 / 214
Сообщения: 28010
Информация о фильме
Название: 007: СПЕКТР
Оригинальное название: Spectre
Год выхода: 2015
Жанр: боевик, триллер, приключения
Режиссер: Сэм Мендес
В ролях: Дэниэл Крэйг, Кристоф Вальц, Леа Сейду, Рэйф Файнс, Моника Беллуччи, Бен Уишоу, Наоми Харрис, Дэйв Батиста, Эндрю Скотт, Рори Киннер
О фильме:
Новая работа Джеймса Бонда будет связана не только с защитой человечества, но и с личной информацией из его далекого прошлого. «Спектр», террористическая организация, владеющая мощным оружием, странным образом выходит на связь с Джеймсом, предлагая информацию, о которой он даже не знал. Расследование, за которое взялся серьезный агент, встало в самом начале, ведь со «Спектром» оказываются связаны самые высшие чины из его руководства.
Эта миссия, быть может, станет последней для бессменного агента Бонда - без прикрытия, без содействия ему предстоит лично столкнуться со своим туманным прошлым, и с опасными террористами.

Страна: Великобритания, США
Студия: Columbia Pictures, Eon Productions Ltd., Metro-Goldwyn-Mayer (MGM)
Продолжительность: 02:28:16
Перевод: Профессиональный (дублированный) Blu-ray EUR + Авторский (одноголосый, закадровый) Михаил Чадов
Файл
Формат: Matroska
Видео: 1280x536 at 23.976 fps, x264@L4.1, ~6759 kbps avg
Aудио#1: Russian: 48 kHz, DTS, 3/2 (L,C,R,l,r) + LFE ch, ~768.00 kbps avg |Дубляж, Blu-ray EUR|
Aудио#2: Russian: 48 kHz, AC3, 3/2 (L,C,R,l,r) + LFE ch, ~448.00 kbps avg |Дубляж, Blu-ray EUR|
Aудио#3: Ukrainian: 48 kHz, AC3, 3/2 (L,C,R,l,r) + LFE ch, ~448.00 kbps avg |Дубляж, Blu-ray EUR|
Aудио#4: Russian: 48 kHz, AC3, 3/2 (L,C,R,l,r) + LFE ch, ~640.00 kbps avg |Авторский, М.Чадов|
Aудио#5: Russian: 48 kHz, DTS, 3/2 (L,C,R,l,r) + LFE ch, ~1509.00 kbps avg |Авторский, М.Чадов|
Аудио#6: English: 48 kHz, DTS, 3/2 (L,C,R,l,r) + LFE ch, ~1509.00 kbps avg
Субтитры: Russian, Ukrainian, English
***Сохранены оригинальные главы как на Blu-ray.
***Видеоряд - ViSUM, сборка рипа - bog3417.
Роль С мог сыграть Чиветель Эджиофор.
Энг Ли, Том Хупер, Дэвид Йэтс, Дэнни Бойл, Шейн Блэк, Кристофер Нолан рассматривались на пост режиссера до того, как к этой должности согласился вернуться Сэм Мендес.
Новый автомобиль Джеймса Бонда - Aston Martin DB10.
Гари Олдман рассматривался на роль, которую в итоге получил Кристоф Вальц.
[*]Сцена взрыва секретной базы в Марокко внесена в «Книгу рекордов Гиннеса» как самый большой постановочный взрыв в истории кино.
Общее
Уникальный идентификатор : 196690962169154016408296237303807603703 (0x93F94D2772E53658BC599F93520BF3F7)
Полное имя : Spectre.2015.BDRip.720p.mkv
Формат : Matroska
Версия формата : Version 2
Размер файла : 12,7 Гбайт
Продолжительность : 2 ч. 28 м.
Общий поток : 12,3 Мбит/сек
Название фильма : BLUEBIRD
Дата кодирования : UTC 2016-02-10 21:22:45
Программа кодирования : mkvmerge v7.9.0 ('Birds') 64bit
Библиотека кодирования : libebml v1.3.1 + libmatroska v1.4.2
Видео
Идентификатор : 1
Формат : AVC
Формат/Информация : Advanced Video Codec
Профиль формата : High@L4.1
Параметр CABAC формата : Да
Параметр ReFrames формата : 9 кадров
Идентификатор кодека : V_MPEG4/ISO/AVC
Продолжительность : 2 ч. 28 м.
Битрейт : 6738 Кбит/сек
Ширина : 1280 пикселей
Высота : 536 пикселей
Соотношение сторон : 2,40:1
Режим частоты кадров : Постоянный
Частота кадров : 23,976 кадра/сек
Цветовое пространство : YUV
Субдискретизация насыщенности : 4:2:0
Битовая глубина : 8 бит
Тип развёртки : Прогрессивная
Бит/(Пиксели*Кадры) : 0.410
Размер потока : 6,97 Гбайт (55%)
Заголовок : BLUEBIRD
Библиотека кодирования : x264 core 148 r2638kMod 7599210
Настройки программы : cabac=1 / ref=9 / deblock=1:-3:-3 / analyse=0x3:0x113 / me=tesa / subme=11 / psy=1 / fade_compensate=0.00 / psy_rd=1.03:0.00 / mixed_ref=1 / me_range=32 / chroma_me=1 / trellis=2 / 8x8dct=1 / cqm=0 / deadzone=21,11 / fast_pskip=1 / chroma_qp_offset=-2 / threads=12 / lookahead_threads=2 / sliced_threads=0 / nr=0 / decimate=1 / interlaced=0 / bluray_compat=0 / constrained_intra=0 / fgo=0 / bframes=8 / b_pyramid=2 / b_adapt=2 / b_bias=0 / direct=3 / weightb=1 / open_gop=0 / weightp=2 / keyint=240 / keyint_min=23 / scenecut=40 / intra_refresh=0 / rc_lookahead=50 / rc=crf / mbtree=0 / crf=17.5000 / qcomp=0.70 / qpmin=0 / qpmax=69 / qpstep=4 / vbv_maxrate=62500 / vbv_bufsize=78125 / crf_max=0.0 / nal_hrd=none / filler=0 / ip_ratio=1.40 / pb_ratio=1.30 / aq=3:1.07
Default : Да
Forced : Нет
Аудио #1
Идентификатор : 2
Формат : DTS
Формат/Информация : Digital Theater Systems
Режим : 16
Параметр Endianness формата : Big
Идентификатор кодека : A_DTS
Продолжительность : 2 ч. 28 м.
Вид битрейта : Постоянный
Битрейт : 768 Кбит/сек
Каналы : 6 каналов
Расположение каналов : Front: L C R, Side: L R, LFE
Частота : 48,0 КГц
Битовая глубина : 24 бит
Метод сжатия : С потерями
Размер потока : 814 Мбайт (6%)
Заголовок : BD EUR
Язык : Russian
Default : Да
Forced : Нет
Аудио #2
Идентификатор : 3
Формат : AC-3
Формат/Информация : Audio Coding 3
Расширение режима : CM (complete main)
Параметр Endianness формата : Big
Идентификатор кодека : A_AC3
Продолжительность : 2 ч. 28 м.
Вид битрейта : Постоянный
Битрейт : 448 Кбит/сек
Каналы : 6 каналов
Расположение каналов : Front: L C R, Side: L R, LFE
Частота : 48,0 КГц
Метод сжатия : С потерями
Размер потока : 475 Мбайт (4%)
Язык : Russian
Default : Нет
Forced : Нет
Аудио #3
Идентификатор : 4
Формат : AC-3
Формат/Информация : Audio Coding 3
Расширение режима : CM (complete main)
Параметр Endianness формата : Big
Идентификатор кодека : A_AC3
Продолжительность : 2 ч. 28 м.
Вид битрейта : Постоянный
Битрейт : 448 Кбит/сек
Каналы : 6 каналов
Расположение каналов : Front: L C R, Side: L R, LFE
Частота : 48,0 КГц
Метод сжатия : С потерями
Размер потока : 475 Мбайт (4%)
Заголовок : BD EUR
Язык : Ukrainian
Default : Нет
Forced : Нет
Аудио #4
Идентификатор : 5
Формат : AC-3
Формат/Информация : Audio Coding 3
Расширение режима : CM (complete main)
Параметр Endianness формата : Big
Идентификатор кодека : A_AC3
Продолжительность : 2 ч. 28 м.
Вид битрейта : Постоянный
Битрейт : 640 Кбит/сек
Каналы : 6 каналов
Расположение каналов : Front: L C R, Side: L R, LFE
Частота : 48,0 КГц
Метод сжатия : С потерями
Размер потока : 678 Мбайт (5%)
Заголовок : VO, ЧАДОВ
Язык : Russian
Default : Нет
Forced : Нет
Аудио #5
Идентификатор : 6
Формат : DTS
Формат/Информация : Digital Theater Systems
Режим : 16
Параметр Endianness формата : Big
Идентификатор кодека : A_DTS
Продолжительность : 2 ч. 28 м.
Вид битрейта : Постоянный
Битрейт : 1510 Кбит/сек
Каналы : 6 каналов
Расположение каналов : Front: L C R, Side: L R, LFE
Частота : 48,0 КГц
Битовая глубина : 24 бит
Метод сжатия : С потерями
Размер потока : 1,56 Гбайт (12%)
Заголовок : VO, ЧАДОВ
Язык : Russian
Default : Нет
Forced : Нет
Аудио #6
Идентификатор : 7
Формат : DTS
Формат/Информация : Digital Theater Systems
Режим : 16
Параметр Endianness формата : Big
Идентификатор кодека : A_DTS
Продолжительность : 2 ч. 28 м.
Вид битрейта : Постоянный
Битрейт : 1509 Кбит/сек
Каналы : 6 каналов
Расположение каналов : Front: L C R, Side: L R, LFE
Частота : 48,0 КГц
Битовая глубина : 24 бит
Метод сжатия : С потерями
Размер потока : 1,56 Гбайт (12%)
Язык : English
Default : Нет
Forced : Нет
Текст #1
Идентификатор : 8
Формат : UTF-8
Идентификатор кодека : S_TEXT/UTF8
Идентификатор кодека/Информация : UTF-8 Plain Text
Язык : Russian
Default : Да
Forced : Нет
Текст #2
Идентификатор : 9
Формат : UTF-8
Идентификатор кодека : S_TEXT/UTF8
Идентификатор кодека/Информация : UTF-8 Plain Text
Язык : Russian
Default : Нет
Forced : Нет
Текст #3
Идентификатор : 10
Формат : UTF-8
Идентификатор кодека : S_TEXT/UTF8
Идентификатор кодека/Информация : UTF-8 Plain Text
Язык : Ukrainian
Default : Нет
Forced : Нет
Текст #4
Идентификатор : 11
Формат : UTF-8
Идентификатор кодека : S_TEXT/UTF8
Идентификатор кодека/Информация : UTF-8 Plain Text
Язык : English
Default : Нет
Forced : Нет
Текст #5
Идентификатор : 12
Формат : UTF-8
Идентификатор кодека : S_TEXT/UTF8
Идентификатор кодека/Информация : UTF-8 Plain Text
Язык : English
Default : Нет
Forced : Нет
Меню
00:00:00.000 : en:00:00:00.000
00:06:09.119 : en:00:06:09.119
00:13:04.784 : en:00:13:04.784
00:18:58.471 : en:00:18:58.471
00:24:46.777 : en:00:24:46.777
00:28:04.057 : en:00:28:04.057
00:32:15.559 : en:00:32:15.559
00:36:58.591 : en:00:36:58.591
00:41:56.639 : en:00:41:56.639
00:46:13.145 : en:00:46:13.145
00:50:51.924 : en:00:50:51.924
00:53:43.220 : en:00:53:43.220
01:00:21.368 : en:01:00:21.368
01:06:48.213 : en:01:06:48.213
01:10:58.963 : en:01:10:58.963
01:15:14.093 : en:01:15:14.093
01:18:55.648 : en:01:18:55.648
01:26:11.041 : en:01:26:11.041
01:29:40.000 : en:01:29:40.000
01:36:43.548 : en:01:36:43.548
01:41:44.390 : en:01:41:44.390
01:49:06.415 : en:01:49:06.415
01:55:52.821 : en:01:55:52.821
01:59:39.214 : en:01:59:39.214
02:04:19.744 : en:02:04:19.744
02:09:28.511 : en:02:09:28.511
02:14:05.663 : en:02:14:05.663
02:19:42.374 : en:02:19:42.374





реклама партнёра


Вернуться к началу
 Профиль  
 
   Похожие торренты   Автор   Торрент   Размер 
В этой теме нет новых непрочитанных сообщений. 007: СПЕКТР / Spectre [боевик, триллер, приключения, 2015] BDRip-AVC, Dub+Sub [Лицензия]

Dracon

1688 | 79

1.46 ГБ

В этой теме нет новых непрочитанных сообщений. 007: СПЕКТР / Spectre [боевик, триллер, приключения, 2015] BDRip-AVC, Dub+Sub [Лицензия]

Dracon

4055 | 175

2.91 ГБ

В этой теме нет новых непрочитанных сообщений. 007: СПЕКТР / Spectre [боевик, триллер, приключения, 2015] BDRip 1080p, Dub+Avo+Sub [Лицензия]

Dracon

1146 | 109

21.67 ГБ

В этой теме нет новых непрочитанных сообщений. 007: СПЕКТР / Spectre [боевик, триллер, приключения, 2015] BDRip 720p, dub+sub [Чистый звук]

Dracon

12184 | 2779

5.58 ГБ

В этой теме нет новых непрочитанных сообщений. 007: СПЕКТР / Spectre [боевик, триллер, приключения, 2015] Blu-Ray (1080p), Dub+Sub [Лицензия]

Dracon

169 | 38

41.9 ГБ

В этой теме нет новых непрочитанных сообщений. 007: СПЕКТР / Spectre [боевик, триллер, приключения, 2015] BDRemux 1080p, Dub+Avo+Sub [Лицензия]

Dracon

279 | 10

32.5 ГБ

В этой теме нет новых непрочитанных сообщений. 007: СПЕКТР / Spectre [боевик, триллер, приключения, 2015] BDRip-AVC, Avo+Sub

Dracon

1762 | 45

2.47 ГБ


Начать новую тему Ответить на тему  [ 1 сообщение ] 




Для Мосгорсуда, Роскомнадзора и рекламодателей:: mosgorsud-torrent[собачка]yandex.ru