Торрент файл
скачать торрент магнет ссылка Добавлен: 04 фев 2016, 20:59
Размер: 8.8 ГБ
Сидеров: 62
Личеров: 46
Автор

СообщениеДобавлено: 04 фев 2016, 20:59 

В сети
Супермодератор
Аватара пользователя
Дата регистрации:
15 фев 2012, 16:44
Возраст: 28
Спасибо: 6833 / 2147
Сообщения: 49432
Год выхода: 1986
Жанр: мюзикл, фэнтези, приключения, семейный
Режиссер: Джим Хенсон
В ролях:
Дэвид Боуи — король гоблинов Джарет, Дженнифер Коннелли — Сара Уильямс, Тоби Фрауд — Тоби Уильямс, Шелли Томпсон — Ирэн Уильямс, Кристофер Малкольм — Роберт Уильямс, Шари Уайзер — Хогл, Рон Мьюек — Людо, Дейв Гёльц — Сэр Дидимус, Карен Прелл — Червяк Вильям, Фрэнк Оз — Мудрец, Карэн Прелл — Мусорщица, Уорик Дэвис — Гоблин-командующий.
О фильме:
За гранью сна и яви, в полной удивительных чудес волшебной стране жил да был король гоблинов Джарет. Однажды услыхал он, как девочка Сара в сердцах сказала несносному младшему брату Тоби: «Чтоб тебя гоблины унесли!» — и тут же поймал ее на слове, утащив малыша в свой замок! «Что же я наделала», — ахнула Сара и бросилась за Джаретом вдогонку, пока дверь в сказку не захлопнулась.
Но чтобы попасть в замок похитителя и спасти брата, ей придется пройти зачарованный Лабиринт. Он полон всяких чудищ, хитрых ловушек и головоломок. А выход из него стережет целая армия гоблинов! Встречая на своем пути сонмы невиданных созданий и разгадывая странные загадки, Сара храбро углубляется в таинственный мир Лабиринта, шаг за шагом приближаясь к твердыне короля Джарета…



Страна: Великобритания США
Студия: Delphi V Productions, Henson Associates (HA), The Jim Henson Company, Lucasfilm Ltd., TriStar Pictures
Продолжительность: 01:41:03
Перевод: Профессиональный многоголосый, Авторский одноголосый, Оригинал
Файл
Кодек: x264
Качество: BDRip 1080p
Видео: 1920x816 (2,35:1), 23.976 fps, 10,0 kbps
Звук:
Аудио #1: AC3, 384 Kbps, 48.0 KHz, 6 ch (Rus) Профессиональный многоголосый, R5
Аудио #2: AC3, 384 Kbps, 48.0 KHz, 6 ch (Rus) Профессиональный многоголосый, Superbit #1
Аудио #3: AC3, 448 Kbps, 48.0 KHz, 6 ch (Rus) Профессиональный многоголосый, Superbit #2
Аудио #4: AC3, 448 Kbps, 48.0 KHz, 6 ch (Rus) Авторский одноголосый, А.Гаврилов
Аудио #5: AC3, 384 Kbps, 48.0 KHz, 6 ch (Rus) Авторский одноголосый, В.Горчаков
Аудио #6: AC3, 192 Kbps, 48.0 KHz, 2 ch (Rus) Авторский одноголосый, М.Иванов
Аудио #7: AC3, 384 Kbps, 48.0 KHz, 6 ch (Eng) Оригинал
Субтитры: Русские (форс., полные), Украинские, Английские


Формат : Matroska
Версия формата : Version 2
Размер файла : 8,80 Гбайт
Продолжительность : 1 ч. 41 м.
Общий поток : 12,5 Мбит/сек
Дата кодирования : UTC 2016-01-22 10:52:21
Программа кодирования : mkvmerge v5.4.0 ('Piper') built on Mar 10 2012 13:34:39
Библиотека кодирования : libebml v1.2.3 + libmatroska v1.3.0
Видео
Идентификатор : 1
Формат : AVC
Формат/Информация : Advanced Video Codec
Профиль формата : High@L4.1
Параметр CABAC формата : Да
Параметр ReFrames формата : 5 кадров
Идентификатор кодека : V_MPEG4/ISO/AVC
Продолжительность : 1 ч. 41 м.
Битрейт : 10,0 Мбит/сек
Ширина : 1920 пикселей
Высота : 816 пикселей
Соотношение сторон : 2,35:1
Режим частоты кадров : Постоянный
Частота кадров : 23,976 кадра/сек
Цветовое пространство : YUV
Субдискретизация насыщенности : 4:2:0
Битовая глубина : 8 бит
Тип развёртки : Прогрессивная
Бит/(Пиксели*Кадры) : 0.267
Размер потока : 6,77 Гбайт (77%)
Заголовок : Labyrinth / Лабиринт (1986)
Библиотека кодирования : x264 core 125 r2200 999b753
Настройки программы : cabac=1 / ref=5 / deblock=1:-3:-3 / analyse=0x3:0x133 / me=umh / subme=10 / psy=1 / psy_rd=1.00:0.00 / mixed_ref=1 / me_range=48 / chroma_me=1 / trellis=2 / 8x8dct=1 / cqm=0 / deadzone=21,11 / fast_pskip=0 / chroma_qp_offset=-2 / threads=12 / lookahead_threads=2 / sliced_threads=0 / nr=0 / decimate=1 / interlaced=0 / bluray_compat=0 / constrained_intra=0 / bframes=6 / b_pyramid=2 / b_adapt=2 / b_bias=0 / direct=3 / weightb=1 / open_gop=0 / weightp=2 / keyint=250 / keyint_min=23 / scenecut=40 / intra_refresh=0 / rc_lookahead=60 / rc=2pass / mbtree=0 / bitrate=10046 / ratetol=1.0 / qcomp=0.60 / qpmin=0 / qpmax=69 / qpstep=4 / cplxblur=20.0 / qblur=0.5 / vbv_maxrate=40000 / vbv_bufsize=40000 / nal_hrd=none / ip_ratio=1.40 / pb_ratio=1.30 / aq=2:0.80
Язык : English
Default : Да
Forced : Нет
Аудио #1
Идентификатор : 2
Формат : AC-3
Формат/Информация : Audio Coding 3
Расширение режима : CM (complete main)
Параметр Endianness формата : Big
Идентификатор кодека : A_AC3
Продолжительность : 1 ч. 41 м.
Вид битрейта : Постоянный
Битрейт : 384 Кбит/сек
Каналы : 6 каналов
Расположение каналов : Front: L C R, Side: L R, LFE
Частота : 48,0 КГц
Битовая глубина : 16 бит
Метод сжатия : С потерями
Размер потока : 278 Мбайт (3%)
Заголовок : MVO (Russian) R5
Язык : Russian
Default : Да
Forced : Нет
Аудио #2
Идентификатор : 3
Формат : AC-3
Формат/Информация : Audio Coding 3
Расширение режима : CM (complete main)
Параметр Endianness формата : Big
Идентификатор кодека : A_AC3
Продолжительность : 1 ч. 41 м.
Вид битрейта : Постоянный
Битрейт : 384 Кбит/сек
Каналы : 6 каналов
Расположение каналов : Front: L C R, Side: L R, LFE
Частота : 48,0 КГц
Битовая глубина : 16 бит
Метод сжатия : С потерями
Размер потока : 278 Мбайт (3%)
Заголовок : MVO (Russian) Superbit #1
Язык : Russian
Default : Нет
Forced : Нет
Аудио #3
Идентификатор : 4
Формат : AC-3
Формат/Информация : Audio Coding 3
Расширение режима : CM (complete main)
Параметр Endianness формата : Big
Идентификатор кодека : A_AC3
Продолжительность : 1 ч. 41 м.
Вид битрейта : Постоянный
Битрейт : 448 Кбит/сек
Каналы : 6 каналов
Расположение каналов : Front: L C R, Side: L R, LFE
Частота : 48,0 КГц
Битовая глубина : 16 бит
Метод сжатия : С потерями
Размер потока : 324 Мбайт (4%)
Заголовок : MVO (Russian) Superbit #2
Язык : Russian
Default : Нет
Forced : Нет
Аудио #4
Идентификатор : 5
Формат : AC-3
Формат/Информация : Audio Coding 3
Расширение режима : CM (complete main)
Параметр Endianness формата : Big
Идентификатор кодека : A_AC3
Продолжительность : 1 ч. 41 м.
Вид битрейта : Постоянный
Битрейт : 448 Кбит/сек
Каналы : 6 каналов
Расположение каналов : Front: L C R, Side: L R, LFE
Частота : 48,0 КГц
Битовая глубина : 16 бит
Метод сжатия : С потерями
Размер потока : 324 Мбайт (4%)
Заголовок : AVO (А.Гаврилов)
Язык : Russian
Default : Нет
Forced : Нет
Аудио #5
Идентификатор : 6
Формат : AC-3
Формат/Информация : Audio Coding 3
Расширение режима : CM (complete main)
Параметр Endianness формата : Big
Идентификатор кодека : A_AC3
Продолжительность : 1 ч. 41 м.
Вид битрейта : Постоянный
Битрейт : 384 Кбит/сек
Каналы : 6 каналов
Расположение каналов : Front: L C R, Side: L R, LFE
Частота : 48,0 КГц
Битовая глубина : 16 бит
Метод сжатия : С потерями
Размер потока : 278 Мбайт (3%)
Заголовок : AVO (В.Горчаков)
Язык : Russian
Default : Нет
Forced : Нет
Аудио #6
Идентификатор : 7
Формат : AC-3
Формат/Информация : Audio Coding 3
Расширение режима : CM (complete main)
Параметр Endianness формата : Big
Идентификатор кодека : A_AC3
Продолжительность : 1 ч. 41 м.
Вид битрейта : Постоянный
Битрейт : 192 Кбит/сек
Каналы : 2 канала
Расположение каналов : Front: L R
Частота : 48,0 КГц
Битовая глубина : 16 бит
Метод сжатия : С потерями
Размер потока : 139 Мбайт (2%)
Заголовок : AVO (М.Иванов)
Язык : Russian
Default : Нет
Forced : Нет
Аудио #7
Идентификатор : 8
Формат : AC-3
Формат/Информация : Audio Coding 3
Расширение режима : CM (complete main)
Параметр Endianness формата : Big
Идентификатор кодека : A_AC3
Продолжительность : 1 ч. 41 м.
Вид битрейта : Постоянный
Битрейт : 384 Кбит/сек
Каналы : 6 каналов
Расположение каналов : Front: L C R, Side: L R, LFE
Частота : 48,0 КГц
Битовая глубина : 16 бит
Метод сжатия : С потерями
Размер потока : 278 Мбайт (3%)
Заголовок : Original (English)
Язык : English
Default : Нет
Forced : Нет
Текст #1
Идентификатор : 9
Формат : UTF-8
Идентификатор кодека : S_TEXT/UTF8
Идентификатор кодека/Информация : UTF-8 Plain Text
Заголовок : Rus forced
Язык : Russian
Default : Да
Forced : Да
Текст #2
Идентификатор : 10
Формат : UTF-8
Идентификатор кодека : S_TEXT/UTF8
Идентификатор кодека/Информация : UTF-8 Plain Text
Заголовок : Rus
Язык : Russian
Default : Нет
Forced : Нет
Текст #3
Идентификатор : 11
Формат : UTF-8
Идентификатор кодека : S_TEXT/UTF8
Идентификатор кодека/Информация : UTF-8 Plain Text
Заголовок : Ukr
Язык : Ukrainian
Default : Нет
Forced : Нет
Текст #4
Идентификатор : 12
Формат : ASS
Идентификатор кодека : S_TEXT/ASS
Идентификатор кодека/Информация : Advanced Sub Station Alpha
Метод сжатия : Без потерь
Заголовок : Eng
Язык : English
Default : Нет
Forced : Нет
Меню
00:00:00.000 : :Chapter 01
00:04:09.207 : :Chapter 02
00:11:44.537 : :Chapter 03
00:16:57.975 : :Chapter 04
00:22:20.756 : :Chapter 05
00:28:53.523 : :Chapter 06
00:33:11.656 : :Chapter 07
00:38:52.997 : :Chapter 08
00:45:05.661 : :Chapter 09
00:50:48.378 : :Chapter 10
00:57:20.019 : :Chapter 11
01:03:25.468 : :Chapter 12
01:09:57.860 : :Chapter 13
01:15:50.128 : :Chapter 14
01:24:05.999 : :Chapter 15
01:30:47.567 : :Chapter 16


_________________
Проголосуй за трекер Открытый торрент трекер - RUS-MEDIA.ORG

Проголосуй Открытый торрент трекер - RUS-MEDIA.ORG



реклама партнёра


Вернуться к началу
 Профиль Отправить личное сообщение  
 
   Похожие торренты   Автор   Торрент   Размер 
В этой теме нет новых непрочитанных сообщений. Приключения олененка Рудольфа / Rudolph, the Red-Nosed Reindeer [мультфильм, мюзикл, фэнтези, приключения, семейный, 1964] BDRip 1080p, Mvo

salma3

7 | 4

3.62 ГБ

В этой теме нет новых непрочитанных сообщений. Андрон – Чёрный лабиринт / Andròn - The Black Labyrinth [фантастика, боевик, 2015] WEB-DL 1080p, Mvo

salma3

578 | 65

3.34 ГБ

В этой теме нет новых непрочитанных сообщений. Закон Мерфи / Murphy's Law [боевик, триллер, драма, криминал, детектив, 1986] BDRip 1080p, , Mvo+3Avo+Sub

salma3

76 | 21

7.64 ГБ

В этой теме нет новых непрочитанных сообщений. Чем дальше в лес... / Into the Woods (Роб Маршалл) [Фэнтези, комедия, семейный, мюзикл, 2014] BDRip 1080p, Dub+Sub [iTunes]

Dracon

265 | 7

12.44 ГБ

В этой теме нет новых непрочитанных сообщений. Пришельцы / Les Visiteurs [фантастика, фэнтези, комедия, 1993] BDRip 1080p, Dub+3Mvo+2Avo+Sub

salma3

55 | 7

10.9 ГБ

В этой теме нет новых непрочитанных сообщений. Пикник в космосе / SpaceCamp [Фантастика, приключения, семейный, 1986] BDRip 1080p, Mvo

salma3

5 | 0

11.12 ГБ

В этой теме нет новых непрочитанных сообщений. Тролли / Trolls (Мультфильм, мюзикл, фэнтези, комедия, приключения, семейный, 2016) BDRemux 1080p от ExKinoRay | iTunes

marya111

55 | 38

20.33 ГБ


Начать новую тему Ответить на тему  [ 1 сообщение ] 




Для Мосгорсуда, Роскомнадзора и рекламодателей:: mosgorsud-torrent[собачка]yandex.ru