Торрент файл
скачать торрент магнет ссылка Добавлен: 03 фев 2016, 16:44
Размер: 9.37 ГБ
Сидеров: 202
Личеров: 13
Автор

СообщениеДобавлено: 03 фев 2016, 16:44 

Не в сети
Зам. Админа
Аватара пользователя
Дата регистрации:
02 дек 2010, 12:39
Спасибо: 12652 / 214
Сообщения: 28010
Информация о фильме
Название: Пэн: Путешествие в Нетландию
Оригинальное название: Pan
Год выпуска: 2015
Жанр: Фэнтези, комедия, приключения, семейный
Выпущено: США, Великобритания, Австралия, Warner Bros., RatPac-Dune Entertainment, Berlanti Productions
Режиссер: Джо Райт
В ролях: Хью Джекман, Леви Миллер, Гаррет Хедлунд, Руни Мара, Адиль Ахтар, Нонсо Анози, Аманда Сайфред, Кэти Бёрк, Льюис МакДугалл, Кара Делевинь, Тхэ-чжу На, Джек Чарльз, Бронсон Уэбб, Майк Шеперд, Брайан Бовелл, Курт Эгиаван, Джимми Ви, Пол Хантер, Спенсер Уидлинг, Дин Нолан
О фильме: Питер Пэн — безграмотный лондонский сирота, в поисках матери и собственного предназначения оказавшийся в Нетландии. Здесь ему предстоит стать не кем иным, как лидером восстания местных жителей против злых пиратов, которое возглавляет капитан Черная борода. А вот вечный враг Пэна, Джеймс Крюк, окажется его союзником и вообще обаятельным, мужественным парнем с отменным чувством юмора и обеими конечностями. Заручившись поддержкой Тигровой Лилии, принцессы индейского племени, Питер и Крюк поведут недовольных обитателей волшебной страны в бой против коварных узурпаторов…

Файл
Качество: BDRip (1080p)
Видео: MPEG-4 AVC, 9875 Кбит/с, 1920x800, 23.976 кадр/с
Аудио: Русский (AC3, 6 ch, 640 Кбит/с), английский (DTS, 6 ch, 1509 Кбит/с)
Размер: 9.37 ГБ
Продолжительность: 01:51:55
Перевод: Дублированный
Субтитры: Русские, английские
Озвучивание - Дублированное (Лицензия)
Сохранены оригинальные чаптеры.
x264 [info]: frame I:1165 Avg QP:15.25 size:223141
x264 [info]: frame P:39629 Avg QP:17.95 size: 95915
x264 [info]: frame B:119656 Avg QP:19.62 size: 35087
x264 [info]: consecutive B-frames: 3.5% 4.5% 8.2% 35.5% 14.6% 20.5% 6.1% 5.8% 1.0% 0.2%
x264 [info]: mb I I16..4: 9.5% 71.8% 18.7%
x264 [info]: mb P I16..4: 2.3% 27.6% 2.2% P16..4: 23.6% 28.8% 7.8% 2.9% 0.2% skip: 4.6%
x264 [info]: mb B I16..4: 0.3% 2.4% 0.3% B16..8: 37.5% 23.2% 3.7% direct: 7.7% skip:24.8% L0:43.9% L1:42.7% BI:13.4%
x264 [info]: 8x8 transform intra:83.6% inter:49.1%
x264 [info]: direct mvs spatial:98.5% temporal:1.5%
x264 [info]: coded y,uvDC,uvAC intra: 89.3% 90.0% 73.6% inter: 38.2% 36.7% 18.0%
x264 [info]: i16 v,h,dc,p: 40% 9% 6% 45%
x264 [info]: i8 v,h,dc,ddl,ddr,vr,hd,vl,hu: 8% 6% 9% 10% 14% 13% 13% 13% 14%
x264 [info]: i4 v,h,dc,ddl,ddr,vr,hd,vl,hu: 10% 8% 8% 8% 14% 14% 14% 11% 14%
x264 [info]: i8c dc,h,v,p: 52% 17% 15% 17%
x264 [info]: Weighted P-Frames: Y:15.6% UV:9.7%
x264 [info]: ref P L0: 53.8% 8.6% 19.8% 9.5% 6.6% 1.4% 0.2%
x264 [info]: ref B L0: 81.4% 13.8% 3.7% 1.1%
x264 [info]: ref B L1: 94.9% 5.1%
x264 [info]: kb/s:9873.56

Общее
Уникальный идентификатор : 190583747533926443281081561033607636693 (0x8F61183999B4DA568D96E279155666D5)
Полное имя : D:ЗагрузкиPan.2015.x264.BDRip.(1080p).ExKinoRay.mkv
Формат : Matroska
Версия формата : Version 2
Размер файла : 9,37 Гбайт
Продолжительность : 1 ч. 51 м.
Общий поток : 12,0 Мбит/сек
Название фильма : Пэн: Путешествие в Нетландию.2015.Rip by: ollan
Дата кодирования : UTC 2016-02-02 18:02:09
Программа кодирования : mkvmerge v5.6.0 ('Kenya Kane') built on May 27 2012 16:44:04
Библиотека кодирования : libebml v1.2.3 + libmatroska v1.3.0
Видео
Идентификатор : 1
Формат : AVC
Формат/Информация : Advanced Video Codec
Профиль формата : High@L4.1
Параметр CABAC формата : Да
Параметр ReFrames формата : 5 кадров
Идентификатор кодека : V_MPEG4/ISO/AVC
Продолжительность : 1 ч. 51 м.
Битрейт : 9875 Кбит/сек
Ширина : 1920 пикселей
Высота : 800 пикселей
Соотношение сторон : 2,40:1
Режим частоты кадров : Постоянный
Частота кадров : 23,976 кадра/сек
Цветовое пространство : YUV
Субдискретизация насыщенности : 4:2:0
Битовая глубина : 8 бит
Тип развёртки : Прогрессивная
Бит/(Пиксели*Кадры) : 0.268
Размер потока : 7,51 Гбайт (80%)
Библиотека кодирования : x264 core 125 r2200 999b753
Настройки программы : cabac=1 / ref=5 / deblock=1:-3:-3 / analyse=0x3:0x133 / me=umh / subme=11 / psy=1 / psy_rd=1.00:0.05 / mixed_ref=1 / me_range=48 / chroma_me=1 / trellis=2 / 8x8dct=1 / cqm=0 / deadzone=21,11 / fast_pskip=0 / chroma_qp_offset=-3 / threads=12 / lookahead_threads=2 / sliced_threads=0 / nr=0 / decimate=0 / interlaced=0 / bluray_compat=0 / constrained_intra=0 / bframes=9 / b_pyramid=2 / b_adapt=2 / b_bias=0 / direct=3 / weightb=1 / open_gop=0 / weightp=2 / keyint=240 / keyint_min=23 / scenecut=40 / intra_refresh=0 / rc=2pass / mbtree=0 / bitrate=9875 / ratetol=1.0 / qcomp=0.60 / qpmin=0 / qpmax=69 / qpstep=4 / cplxblur=20.0 / qblur=0.5 / ip_ratio=1.40 / pb_ratio=1.30 / aq=1:1.00
Язык : English
Default : Да
Forced : Нет
Аудио #1
Идентификатор : 2
Формат : AC-3
Формат/Информация : Audio Coding 3
Расширение режима : CM (complete main)
Параметр Endianness формата : Big
Идентификатор кодека : A_AC3
Продолжительность : 1 ч. 51 м.
Вид битрейта : Постоянный
Битрейт : 640 Кбит/сек
Каналы : 6 каналов
Расположение каналов : Front: L C R, Side: L R, LFE
Частота : 48,0 КГц
Битовая глубина : 16 бит
Метод сжатия : С потерями
Размер потока : 511 Мбайт (5%)
Заголовок : Лицензия
Язык : Russian
Default : Да
Forced : Нет
Аудио #2
Идентификатор : 3
Формат : DTS
Формат/Информация : Digital Theater Systems
Режим : 16
Параметр Endianness формата : Big
Идентификатор кодека : A_DTS
Продолжительность : 1 ч. 51 м.
Вид битрейта : Постоянный
Битрейт : 1509 Кбит/сек
Каналы : 6 каналов
Расположение каналов : Front: L C R, Side: L R, LFE
Частота : 48,0 КГц
Битовая глубина : 24 бит
Метод сжатия : С потерями
Размер потока : 1,18 Гбайт (13%)
Язык : English
Default : Нет
Forced : Нет
Текст #1
Идентификатор : 4
Формат : UTF-8
Идентификатор кодека : S_TEXT/UTF8
Идентификатор кодека/Информация : UTF-8 Plain Text
Заголовок : Forced
Язык : Russian
Default : Да
Forced : Нет
Текст #2
Идентификатор : 5
Формат : UTF-8
Идентификатор кодека : S_TEXT/UTF8
Идентификатор кодека/Информация : UTF-8 Plain Text
Заголовок : Full
Язык : Russian
Default : Нет
Forced : Нет
Текст #3
Идентификатор : 6
Формат : UTF-8
Идентификатор кодека : S_TEXT/UTF8
Идентификатор кодека/Информация : UTF-8 Plain Text
Заголовок : Forced
Язык : Ukrainian
Default : Нет
Forced : Нет
Текст #4
Идентификатор : 7
Формат : UTF-8
Идентификатор кодека : S_TEXT/UTF8
Идентификатор кодека/Информация : UTF-8 Plain Text
Заголовок : Full
Язык : English
Default : Нет
Forced : Нет
Меню
00:00:00.000 : en:Chapter 01
00:10:28.418 : en:Chapter 02
00:19:45.851 : en:Chapter 03
00:31:07.281 : en:Chapter 04
00:39:14.059 : en:Chapter 05
00:48:27.862 : en:Chapter 06
01:00:07.561 : en:Chapter 07
01:09:29.372 : en:Chapter 08
01:20:12.805 : en:Chapter 09
01:30:02.896 : en:Chapter 10
01:39:51.025 : en:Chapter 11
01:43:05.887 : en:Chapter 12
01:51:31.850 : en:Chapter 13







Вернуться к началу
 Профиль  
 
   Похожие торренты   Автор   Торрент   Размер 
В этой теме нет новых непрочитанных сообщений. Пэн: Путешествие в Нетландию / Pan [фэнтези, семейный, приключения, 2015] BDRip-AVC, Dub+Sub [Лицензия]

Dracon

960 | 82

2.18 ГБ

В этой теме нет новых непрочитанных сообщений. Пэн: Путешествие в Нетландию / Pan (Джо Райт) [фэнтези, семейный, приключения, 2015] BDRip 720p, Dub+Sub [Лицензия]

Dracon

156 | 14

8.14 ГБ

В этой теме нет новых непрочитанных сообщений. Пэн: Путешествие в Нетландию / Pan (Джо Райт) [фэнтези, семейный, приключения, 2015] BDRip 1080p, Dub+Sub [iTunes]

Dracon

1186 | 67

7.71 ГБ

В этой теме нет новых непрочитанных сообщений. Пэн: Путешествие в Нетландию / Pan (Джо Райт) [фэнтези, семейный, приключения, 2015] BDRip 1080p, dub [iTunes | 3D-Video]

Dracon

17 | 7

12.73 ГБ

В этой теме нет новых непрочитанных сообщений. Пэн: Путешествие в Нетландию / Pan (Джо Райт) [фэнтези, семейный, приключения, 2015] BDRip 1080p, Dub+Sub [3D-Video | iTunes]

Dracon

601 | 38

10.18 ГБ

В этой теме нет новых непрочитанных сообщений. Пэн: Путешествие в Нетландию / Pan (Джо Райт) [фэнтези, семейный, приключения, 2015] HDRip, Dub [Лицензия]

Dracon

259 | 16

1.46 ГБ

В этой теме нет новых непрочитанных сообщений. Пэн: Путешествие в Нетландию 3D / Pan 3D [фэнтези, приключения, семейный, 2015] Blu-ray CEE 3D 1080p, DUB

salma3

59 | 31

37.39 ГБ


Начать новую тему Ответить на тему  [ 1 сообщение ] 




Для Мосгорсуда, Роскомнадзора и рекламодателей:: mosgorsud-torrent[собачка]yandex.ru
cron