Торрент файл
скачать торрент магнет ссылка Добавлен: 03 фев 2016, 14:01
Размер: 5.87 ГБ
Сидеров: 81
Личеров: 10
Автор

СообщениеДобавлено: 03 фев 2016, 14:01 

Не в сети
Супермодератор
Аватара пользователя
Дата регистрации:
15 фев 2012, 16:44
Возраст: 28
Спасибо: 6659 / 2146
Сообщения: 46020
Год выхода: 2000
Жанр: фэнтези, мелодрама, драма, спорт
Режиссер: Роберт Редфорд

В ролях: Уилл Смит, Мэтт Дэймон, Шарлиз Терон, Брюс МакГилл, Джоэль Гретш, Дж. Майкл Монкриф, Лейн Смит, Питер Герети, Майкл О’Нил, Томас Джей Райан

О фильме: Ветеран войны Раннулф Джуннах когда-то был лучшим игроком в гольф во всей Саванне. Но сейчас он всего лишь разочарованный в жизни пьяница. Внезапно в его жизни появляется таинственный Багер Ванс. Он открывает Раннулфу секреты истинного мастерства игры. Теперь Джуннах готов к большому соревнованию.

Страна: США, DreamWorks Pictures
Продолжительность: 02:06:24
Перевод: Профессиональный(многоголосый закадровый)



Файл
Кодек: MPEG-4 AVC
Качество: WEBRip 1080p
Видео: 5439 Кбит/с, 1920х1080
Звук: Русский (AC3, 6 ch, 448 Кбит/с), Английский (AC3, 6 ch, 640 Кбит/с)
Субтитры: Отсутствуют
Семпл

Общее
Уникальный идентификатор : 240216730958228975315173812152444889450 (0xB4B80F3D53B9B0BFA6EDE9DF438BA96A)
Полное имя : D:Легенда.Багера.Ванса.2000.WEBRip.1080p.Rus.Eng.mkv
Формат : Matroska
Версия формата : Version 4 / Version 2
Размер файла : 5,87 Гбайт
Продолжительность : 2 ч. 6 м.
Общий поток : 6651 Кбит/сек
Дата кодирования : UTC 2016-02-02 06:40:13
Программа кодирования : mkvmerge v8.2.0 ('World of Adventure') 64bit
Библиотека кодирования : libebml v1.3.1 + libmatroska v1.4.2
DURATION : 02:06:24.352000000
NUMBER_OF_FRAMES : 237011
NUMBER_OF_BYTES : 424723712
_STATISTICS_WRITING_APP : mkvmerge v8.2.0 ('World of Adventure') 64bit
_STATISTICS_WRITING_DATE_UTC : 2016-02-02 06:40:13
_STATISTICS_TAGS : BPS DURATION NUMBER_OF_FRAMES NUMBER_OF_BYTES
Видео
Идентификатор : 1
Формат : AVC
Формат/Информация : Advanced Video Codec
Профиль формата : High@L4.1
Параметр CABAC формата : Да
Параметр ReFrames формата : 4 кадра
Идентификатор кодека : V_MPEG4/ISO/AVC
Продолжительность : 2 ч. 6 м.
Битрейт : 5430 Кбит/сек
Ширина : 1920 пикселей
Высота : 1080 пикселей
Соотношение сторон : 16:9
Режим частоты кадров : Постоянный
Частота кадров : 23,976 кадра/сек
Цветовое пространство : YUV
Субдискретизация насыщенности : 4:2:0
Битовая глубина : 8 бит
Тип развёртки : Прогрессивная
Бит/(Пиксели*Кадры) : 0.109
Размер потока : 4,79 Гбайт (82%)
Заголовок : Легенда Багера Ванса / The Legend of Bagger Vance (2000)
Библиотека кодирования : x264 core 144 r2525M 40bb568
Настройки программы : cabac=1 / ref=4 / deblock=1:-2:-2 / analyse=0x3:0x113 / me=umh / subme=9 / psy=1 / psy_rd=0.90:0.00 / mixed_ref=1 / me_range=16 / chroma_me=1 / trellis=2 / 8x8dct=1 / cqm=0 / deadzone=21,11 / fast_pskip=1 / chroma_qp_offset=-2 / threads=32 / lookahead_threads=2 / sliced_threads=0 / nr=0 / decimate=1 / interlaced=0 / bluray_compat=0 / constrained_intra=0 / bframes=3 / b_pyramid=2 / b_adapt=2 / b_bias=0 / direct=3 / weightb=1 / open_gop=0 / weightp=2 / keyint=250 / keyint_min=25 / scenecut=40 / intra_refresh=0 / rc_lookahead=50 / rc=crf / mbtree=1 / crf=21.0 / qcomp=0.60 / qpmin=0 / qpmax=69 / qpstep=4 / ip_ratio=1.40 / aq=1:1.00
Default : Да
Forced : Нет
DURATION : 02:06:24.577000000
NUMBER_OF_FRAMES : 181848
NUMBER_OF_BYTES : 5271835369
_STATISTICS_WRITING_APP : mkvmerge v8.2.0 ('World of Adventure') 64bit
_STATISTICS_WRITING_DATE_UTC : 2016-02-02 06:40:13
_STATISTICS_TAGS : BPS DURATION NUMBER_OF_FRAMES NUMBER_OF_BYTES
Аудио #1
Идентификатор : 2
Формат : AC-3
Формат/Информация : Audio Coding 3
Расширение режима : CM (complete main)
Параметр Endianness формата : Big
Идентификатор кодека : A_AC3
Продолжительность : 2 ч. 6 м.
Вид битрейта : Постоянный
Битрейт : 448 Кбит/сек
Каналы : 6 каналов
Расположение каналов : Front: L C R, Side: L R, LFE
Частота : 48,0 КГц
Битовая глубина : 16 бит
Метод сжатия : С потерями
Задержка видео : -83 мс.
Размер потока : 405 Мбайт (7%)
Заголовок : Профессиональный (многоголосый, закадровый)
Язык : Russian
Default : Да
Forced : Нет
DURATION : 02:06:24.320000000
NUMBER_OF_FRAMES : 237010
NUMBER_OF_BYTES : 606745600
_STATISTICS_WRITING_APP : mkvmerge v8.2.0 ('World of Adventure') 64bit
_STATISTICS_WRITING_DATE_UTC : 2016-02-02 06:40:13
_STATISTICS_TAGS : BPS DURATION NUMBER_OF_FRAMES NUMBER_OF_BYTES
Аудио #2
Идентификатор : 3
Формат : AC-3
Формат/Информация : Audio Coding 3
Расширение режима : CM (complete main)
Параметр Endianness формата : Big
Идентификатор кодека : A_AC3
Продолжительность : 2 ч. 6 м.
Вид битрейта : Постоянный
Битрейт : 640 Кбит/сек
Каналы : 6 каналов
Расположение каналов : Front: L C R, Side: L R, LFE
Частота : 48,0 КГц
Битовая глубина : 16 бит
Метод сжатия : С потерями
Размер потока : 579 Мбайт (10%)
Заголовок : Оригинал
Язык : English
Default : Нет
Forced : Нет


_________________
Проголосуй за трекер Открытый торрент трекер - RUS-MEDIA.ORG

Проголосуй Открытый торрент трекер - RUS-MEDIA.ORG



реклама партнёра


Вернуться к началу
 Профиль Отправить личное сообщение  
 
   Похожие торренты   Автор   Торрент   Размер 
В этой теме нет новых непрочитанных сообщений. Легенда Багера Ванса / The Legend of Bagger Vance [Мелодрама, драма, спорт, 2000] WEB-DLRip 720p, Mvo+Sub

salma3

16 | 8

6.86 ГБ

В этой теме нет новых непрочитанных сообщений. Тарзан. Легенда / The Legend of Tarzan [боевик, драма, мелодрама, приключения, 2016] BDRip 1080p, Dub [iTunes]

marya111

755 | 76

7.46 ГБ

В этой теме нет новых непрочитанных сообщений. Тарзан. Легенда / The Legend of Tarzan ( Боевик, драма, мелодрама, приключения, 2016) Blu-Ray 1080p | 3D-Video | Лицензия

marya111

66 | 19

35.73 ГБ

В этой теме нет новых непрочитанных сообщений. Легенда / Legend (Брайан Хелгеленд) [Триллер, драма, криминал, 2015] WEBRip, dub [iTunes]

Dracon

0 | 0

1.46 ГБ

В этой теме нет новых непрочитанных сообщений. Тарзан. Легенда / The Legend of Tarzan (Дэвид Йэтсс) [2016, Боевик, драма, мелодрама, приключения , Blu-Ray Remux 1080p] [DD5.1] [Dub Rus, Englis + Subs Rus,ENG]

Враг Нароода

4 | 7

21.22 ГБ

В этой теме нет новых непрочитанных сообщений. Феи: Легенда о чудовище / Legend of the NeverBeast (Стив Лотер) [мультфильм, фэнтези, приключения, семейный, 2014] Blu-Ray 1080p, Dub+Sub [Лицензия]

Dracon

7 | 5

30.33 ГБ

В этой теме нет новых непрочитанных сообщений. Феи: Легенда о чудовище / Legend of the NeverBeast (Стив Лотер) [мультфильм, фэнтези, приключения, семейный, 2014] Blu-Ray Remux 1080p, Dub+Sub [Лицензия]

Dracon

21 | 3

20.48 ГБ


Начать новую тему Ответить на тему  [ 1 сообщение ] 




Для Мосгорсуда, Роскомнадзора и рекламодателей:: mosgorsud-torrent[собачка]yandex.ru