Торрент файл
скачать торрент магнет ссылка Добавлен: 01 фев 2016, 20:44
Размер: 3.97 ГБ
Сидеров: 51
Личеров: 29
Автор

СообщениеДобавлено: 01 фев 2016, 20:44 

Не в сети
Супермодератор
Аватара пользователя
Дата регистрации:
15 фев 2012, 16:44
Возраст: 29
Спасибо: 7330 / 2147
Сообщения: 73791
Год выхода: 1988
Жанр: драма, мелодрама, комедия
Режиссер: Майкл Хоффман
В ролях:
Патрик Демпси — Майкл, Дженнифер Коннелли — Габриэла д´Арк, Шейла Келли — Иренка д´Арк, Лэнс Эдвардс — Ник, Лиля Кедрова — Бабушка, Флоринда Болкан — миссис д´Арк, Андрэ Грэгори — мистер д´Арк, Эшли Гринфилд — Симон д´Арк, Жан-Луис Милльетте — Отец Уолтер, Санна Враа — молодая Бабушка.
О фильме:
Студент колледжа Майкл приезжает на Рождество в Канаду, чтобы провести его с семьей своей подружки Габриэллы. Однако та сразу заявляет, что больше его не любит. Вынужденный остаться на праздники в доме Габриэллы, Майкл обнаруживает, что ее семья очень странная. Отец, писатель, постоянно ходит по дому обнаженным. Бабушка принимает Майкла за своего покойного мужа, а сестры Габриэллы проявляют к нему явный интерес…



Страна: США Канада Великобритания
Студия: Metro-Goldwyn-Mayer (MGM), The Oxford Film Company, Wildwood Enterprises
Продолжительность: 01:33:32
Перевод: Профессиональный многоголосый, Оригинал
Файл
Кодек: MPEG2
Качество: DVDRemux
Видео: 720x480@856X480 (16:9), 23.976 fps, 5635 kbps
Звук:
Аудио #1: AC3, 128 Kbps, 48.0 KHz, 2 ch (Rus) Профессиональный многоголосый
Аудио #2: AC3, 192 Kbps, 48.0 KHz, 2 ch (Eng) Оригинал
Субтитры: Нет
Формат : Matroska
Версия формата : Version 2
Размер файла : 3,97 Гбайт
Продолжительность : 1 ч. 33 м.
Режим общего битрейта : Переменный
Общий поток : 6076 Кбит/сек
Дата кодирования : UTC 2016-01-26 00:55:35
Программа кодирования : mkvmerge v5.4.0 ('Piper') built on Mar 10 2012 13:34:39
Библиотека кодирования : libebml v1.2.3 + libmatroska v1.3.0
Видео
Идентификатор : 1
Формат : MPEG Video
Версия формата : Version 2
Профиль формата : Main@Main
Параметр BVOP формата : Да
Параметр матрицы формата : Выборочная
Параметр GOP формата : M=3, N=12
Идентификатор кодека : V_MPEG2
Идентификатор кодека/Информация : MPEG 1 or 2 Video
Вид битрейта : Переменный
Битрейт : 5635 Кбит/сек
Максимальный битрейт : 9800 Кбит/сек
Ширина : 720 пикселей
Высота : 480 пикселей
Соотношение сторон : 16:9
Режим частоты кадров : Переменный
Частота кадров в оригинале : 23,976 кадра/сек
Стандарт вещания : Component
Цветовое пространство : YUV
Субдискретизация насыщенности : 4:2:0
Битовая глубина : 8 бит
Тип развёртки : Прогрессивная
Порядок развёртки : 2:3 Pulldown
Метод сжатия : С потерями
Временной код первого кадра : 00:59:59;01
Оригинал временного кода : Group of pictures header
Заголовок : Some Girls / Ну, и девушки / Некоторые девчонки (1988)
Язык : English
Default : Да
Forced : Нет
Основные цвета : BT.601 NTSC
Характеристики трансфера : BT.601
Коэффициенты матрицы : BT.601
Gop_OpenClosed_FirstFrame : Closed
Аудио #1
Идентификатор : 2
Формат : AC-3
Формат/Информация : Audio Coding 3
Расширение режима : CM (complete main)
Параметр Endianness формата : Big
Идентификатор кодека : A_AC3
Продолжительность : 1 ч. 33 м.
Вид битрейта : Постоянный
Битрейт : 128 Кбит/сек
Каналы : 2 канала
Расположение каналов : Front: L R
Частота : 48,0 КГц
Битовая глубина : 16 бит
Метод сжатия : С потерями
Размер потока : 85,6 Мбайт (2%)
Заголовок : MVO (Russian)
Язык : Russian
Default : Да
Forced : Нет
Аудио #2
Идентификатор : 3
Формат : AC-3
Формат/Информация : Audio Coding 3
Профиль формата : Dolby Digital
Расширение режима : CM (complete main)
Параметр Endianness формата : Big
Идентификатор кодека : A_AC3
Продолжительность : 1 ч. 33 м.
Вид битрейта : Постоянный
Битрейт : 192 Кбит/сек
Каналы : 2 канала
Расположение каналов : Front: L R
Частота : 48,0 КГц
Битовая глубина : 16 бит
Метод сжатия : С потерями
Размер потока : 128 Мбайт (3%)
Заголовок : Original (English)
Язык : English
Default : Нет
Forced : Нет
Меню
00:00:00.000 : en:Chapter 01
00:03:32.512 : en:Chapter 02
00:10:34.600 : en:Chapter 03
00:16:45.170 : en:Chapter 04
00:22:26.311 : en:Chapter 05
00:26:26.885 : en:Chapter 06
00:31:28.019 : en:Chapter 07
00:35:35.933 : en:Chapter 08
00:41:46.303 : en:Chapter 09
00:48:49.559 : en:Chapter 10
00:53:35.178 : en:Chapter 11
00:59:01.738 : en:Chapter 12
01:02:31.948 : en:Chapter 13
01:07:11.360 : en:Chapter 14
01:10:18.747 : en:Chapter 15
01:16:47.603 : en:Chapter 16
01:20:23.485 : en:Chapter 17
01:24:10.545 : en:Chapter 18
01:28:20.795 : en:Chapter 19
01:30:47.275 : en:Chapter 20


_________________
Проголосуй за трекер Открытый торрент трекер - RUS-MEDIA.ORG

Проголосуй Открытый торрент трекер - RUS-MEDIA.ORG


Вернуться к началу
 Профиль Отправить личное сообщение  
 
   Похожие торренты   Автор   Торрент   Размер 
В этой теме нет новых непрочитанных сообщений. Земные девушки легко доступны / Earth girls are easy [Музыкальная комедия, мелодрама, 1988] WEB-DL 1080p, Dvo

salma3

0 | 0

11.06 ГБ

В этой теме нет новых непрочитанных сообщений. Земные девушки легко доступны / Earth Girls Are Easy [фантастика, мелодрама, комедия, 1988] WEBRip 1080p, Mvo+Dvo+Avo+Sub

salma3

30 | 37

10.86 ГБ

В этой теме нет новых непрочитанных сообщений. Ну и девушки / Some Girls [Комедия, 1988] HDTVRip, Dvo

salma3

26 | 48

1.45 ГБ

В этой теме нет новых непрочитанных сообщений. Красивые девушки / Beautiful Girls [комедия, драма, мелодрама, 1996] BDRip, Dvo

salma3

61 | 16

2.18 ГБ

В этой теме нет новых непрочитанных сообщений. Красивые девушки / Beautiful Girls [комедия, драма, мелодрама, 1996] BDRip 720p, Dvo+Sub

salma3

60 | 26

7.08 ГБ

В этой теме нет новых непрочитанных сообщений. Девчонки / These Girls [драма, комедия, 2005] SATRip, Dvo

salma3

20 | 4

985.96 МБ

В этой теме нет новых непрочитанных сообщений. Плохие девчонки / Bad Girls [Вестерн, мелодрама, 1994] BDRip 1080p, Mvo

salma3

0 | 0

9.19 ГБ


Начать новую тему Ответить на тему  [ 1 сообщение ] 




Для Мосгорсуда, Роскомнадзора и рекламодателей:: mosgorsud-torrent[собачка]yandex.ru
cron