Торрент файл
скачать торрент магнет ссылка Добавлен: 31 янв 2016, 14:12
Размер: 2.99 ГБ
Сидеров: 71
Личеров: 41
Автор

СообщениеДобавлено: 31 янв 2016, 14:12 

Не в сети
Супермодератор
Аватара пользователя
Дата регистрации:
15 фев 2012, 16:44
Возраст: 28
Спасибо: 6579 / 2144
Сообщения: 44050
Год выхода: 2008
Жанр: фэнтези, семейный
Режиссер: Ричард Коррелл

В ролях: Мэдисон Петтис, Стерлинг Бомон, Люк Бенвард, Брайан Степанек, Дэвид ДеЛуис, Ким Родс, Адам Хикс, Али Лохан, Сабрина Брайан, Рэйчел Уинфри

О фильме:
Родители Макса очень выгодно купили небольшой домик, и вот вся семья переезжает на новое место. Макс большой любитель фокусов и он готовит номер для выступления в школе на Хэллоуин. Однажды пёсик Макса находит на заднем дворе обрывок бумаги с непонятным заклинанием. Оказывается, что в подвале дома находится тоннель в параллельный мир со всякой нечистью, в котором и сгинули бывшие хозяева дома. Нечисть собирается выйти наружу и только Макс сможет спасти наш светлый Мир от потустороннего зла и закрыть тоннель…



Производство: США / Cetus Prodution, Commotion Pictures
Продолжительность: 01:37:36
Перевод: профессиональный (двухголосый закадровый)
Файл
Качество: WEB-DL 720p
Формат: MKV
Видео: MPEG-4 AVC, 1280x720 (16:9), 23.976 fps, 3722 kbps
Аудио #1: русский, AC3 2.0, 48 kHz, 192 kbps
Аудио #2: английский, AC3 5.1, 48 kHz, 384 kbps
Субтитры: английские вшитые отключаемые
Общее
Уникальный идентификатор : 237681018925582072587408062215578284241 (0xB2CFB2FBE552BE1590C0F2348B1970D1)
Полное имя : Mostly.Ghostly.2008.WEB-DL.720p.mkv
Формат : Matroska
Версия формата : Version 4 / Version 2
Размер файла : 2,99 Гбайт
Продолжительность : 1 ч. 37 м.
Общий поток : 4385 Кбит/сек
Дата кодирования : UTC 2015-08-24 10:13:39
Программа кодирования : mkvmerge v6.1.0 ('Old Devil') built on Mar 2 2013 14:32:37
Библиотека кодирования : libebml v1.3.0 + libmatroska v1.4.0
Видео
Идентификатор : 1
Формат : AVC
Формат/Информация : Advanced Video Codec
Профиль формата : High@L3.1
Параметр CABAC формата : Нет
Параметр ReFrames формата : 2 кадра
Идентификатор кодека : V_MPEG4/ISO/AVC
Продолжительность : 1 ч. 37 м.
Битрейт : 3722 Кбит/сек
Ширина : 1280 пикселей
Высота : 720 пикселей
Соотношение сторон : 16:9
Режим частоты кадров : Постоянный
Частота кадров : 23,976 кадра/сек
Цветовое пространство : YUV
Субдискретизация насыщенности : 4:2:0
Битовая глубина : 8 бит
Тип развёртки : Прогрессивная
Бит/(Пиксели*Кадры) : 0.168
Размер потока : 2,54 Гбайт (85%)
Язык : English
Default : Да
Forced : Нет
Цветовой диапазон : Limited
Основные цвета : BT.709
Характеристики трансфера : BT.709
Коэффициенты матрицы : BT.709
Аудио #1
Идентификатор : 2
Формат : AC-3
Формат/Информация : Audio Coding 3
Расширение режима : CM (complete main)
Параметр Endianness формата : Big
Идентификатор кодека : A_AC3
Продолжительность : 1 ч. 37 м.
Вид битрейта : Постоянный
Битрейт : 192 Кбит/сек
Каналы : 2 канала
Расположение каналов : Front: L R
Частота : 48,0 КГц
Метод сжатия : С потерями
Размер потока : 134 Мбайт (4%)
Язык : Russian
Default : Да
Forced : Нет
Аудио #2
Идентификатор : 3
Формат : AC-3
Формат/Информация : Audio Coding 3
Расширение режима : CM (complete main)
Параметр Endianness формата : Big
Идентификатор кодека : A_AC3
Продолжительность : 1 ч. 37 м.
Вид битрейта : Постоянный
Битрейт : 384 Кбит/сек
Каналы : 6 каналов
Расположение каналов : Front: L C R, Side: L R, LFE
Частота : 48,0 КГц
Метод сжатия : С потерями
Размер потока : 268 Мбайт (9%)
Язык : English
Default : Нет
Forced : Нет
Текст
Идентификатор : 4
Формат : UTF-8
Идентификатор кодека : S_TEXT/UTF8
Идентификатор кодека/Информация : UTF-8 Plain Text
Язык : English
Default : Нет
Forced : Нет
Меню
00:00:00.000 : en:Max the Magnificent
00:04:16.000 : en:Sibling Rivalry
00:08:32.000 : en:Paranormal
00:11:57.000 : en:The Underworld
00:16:17.000 : en:Magic Chant
00:19:53.000 : en:Bullied
00:26:10.000 : en:Seeing Ghosts
00:32:06.000 : en:Locked Up
00:38:26.000 : en:Fear Phears
00:42:07.000 : en:Among the Living
00:47:38.000 : en:Dirt Diving
00:51:14.000 : en:Magician's Assistant
00:55:17.000 : en:Heads-Up
01:02:31.000 : en:Rehearsal
01:06:54.000 : en:Stressed-Out
01:11:12.000 : en:Into the Tunnel
01:18:28.000 : en:Trick or Treat
01:24:36.000 : en:Evil Released
01:30:47.000 : en:The Best Halloween Ever
01:33:38.000 : en:End Titles


_________________
Проголосуй за трекер Открытый торрент трекер - RUS-MEDIA.ORG

Проголосуй Открытый торрент трекер - RUS-MEDIA.ORG



реклама партнёра


Вернуться к началу
 Профиль Отправить личное сообщение  
 
   Похожие торренты   Автор   Торрент   Размер 
В этой теме нет новых непрочитанных сообщений. Небольшое привидение / Mostly Ghostly [фэнтези, семейный, 2008] WEBDLRip, Dvo

salma3

9 | 4

1.47 ГБ

В этой теме нет новых непрочитанных сообщений. Небольшое привидение: Одна ночь в проклятом доме / Mostly Ghostly 3: One Night in Doom House [Ужасы, фэнтези, семейный, 2016] WEB-DL 720p, Dub [iTunes]

marya111

234 | 24

2.85 ГБ

В этой теме нет новых непрочитанных сообщений. Небольшое привидение: Одна ночь в проклятом доме / Mostly Ghostly 3: One Night in Doom House [Ужасы, фэнтези, семейный, 2016] WEB-DLRip, Dub [iTunes]

salma3

190 | 80

744.9 МБ

В этой теме нет новых непрочитанных сообщений. Небольшое привидение: Одна ночь в проклятом доме / Mostly Ghostly 3: One Night in Doom House [Ужасы, фэнтези, семейный, 2016] WEB-DLRip, Dub [iTunes]

salma3

426 | 155

1.37 ГБ

В этой теме нет новых непрочитанных сообщений. Небольшое привидение: Вы знакомы с моим другом вурдалаком? / Mostly Ghostly: Have You Met My Ghoulfriend? (Питер Хьюит) [комедия, семейный, 2014] HDRip, dub [чистый звук]

Dracon

885 | 41

1.37 ГБ

В этой теме нет новых непрочитанных сообщений. Маленькое привидение / Das kleine Gespenst [фэнтези, семейный, 2013] BDRip 720p, avo+sub

Dracon

14 | 3

3 ГБ

В этой теме нет новых непрочитанных сообщений. Маленькое привидение / Das kleine Gespenst (Ален Гспонер) [2013, фэнтези, семейный, HDRip-AVC] avo

Nickolas3435

29 | 4

2.14 ГБ


Начать новую тему Ответить на тему  [ 1 сообщение ] 




Для Мосгорсуда, Роскомнадзора и рекламодателей:: mosgorsud-torrent[собачка]yandex.ru