Торрент файл
скачать торрент магнет ссылка Добавлен: 24 янв 2016, 21:30
Размер: 5.39 ГБ
Сидеров: 26
Личеров: 37
Автор

СообщениеДобавлено: 24 янв 2016, 21:31 

Не в сети
Супермодератор
Аватара пользователя
Дата регистрации:
15 фев 2012, 16:44
Возраст: 28
Спасибо: 6640 / 2146
Сообщения: 45613
Год выхода: 1999
Жанр: Драма, криминал
Режиссер: Клод Шаброль / Claude Chabrol

В ролях: Сандрин Боннэр, Жак Гамблен, Антуан де Кон, Валерия Бруни-Тедески, Бернар Верле, Бюль Ожье, Пьер Марто, Noлl Simsolo, Родольф Поли, Эдриэнн Поли

О фильме:
В рыбацком поселке найдено тело десятилетней девочки. Художник и преподаватель живописи Рене — последний человек, который видел ее живой — тут же оказывается под подозрением полицейского инспектора. Рене — чужак в этих местах, поэтому, даже несмотря на отсутствие улик, по городу ползут слухи, что именно он убийца, люди начинают сторониться художника, а ученики перестают ходить на его уроки. Вивиан, жена Рене, пытается вступиться за мужа и идет на открытый конфликт с полицейским инспектором. Когда обнаруживается еще одно мертвое тело, жизнь в поселке замирает окончательно.



Страна: Франция
Студия: Canal+, France 3 Cinéma, MK2 Productions
Продолжительность: 01:53:11.744
Перевод: Профессиональный (двухголосый закадровый) студия NLS
Файл
Кодек: h.264
Качество: BDRip 720p
Видео: 1200x720 (1.667), 23.976 fps, AVC, ~6069 Kbps, 0.293 bits/pixel
Звук:
Русский, 48.0 KHz, AC3, 2 ch, 160 Kbps
Французский, 48.0 KHz, AC3, 2 ch, 448 Kbps (все двойное моно)
Субтитры: Английские, PGS
Общее
Уникальный идентификатор : 205230134562335064730625516075265620961 (0x9A65E2DBABEC9D78BBB51965E5A8FBE1)
Полное имя : I:FilmsV_serdce_lzhi.1999.BDRip720p.mkv
Формат : Matroska
Версия формата : Version 4 / Version 2
Размер файла : 5,39 Гбайт
Продолжительность : 1 ч. 53 м.
Общий поток : 6813 Кбит/сек
Дата кодирования : UTC 2016-01-23 19:08:59
Программа кодирования : mkvmerge v8.8.0 ('Wind at my back') 64bit
Библиотека кодирования : libebml v1.3.3 + libmatroska v1.4.4
Видео
Идентификатор : 1
Формат : AVC
Формат/Информация : Advanced Video Codec
Профиль формата : High@L4.1
Параметр CABAC формата : Да
Параметр ReFrames формата : 9 кадров
Идентификатор кодека : V_MPEG4/ISO/AVC
Продолжительность : 1 ч. 53 м.
Битрейт : 6149 Кбит/сек
Ширина : 1200 пикселей
Высота : 720 пикселей
Соотношение сторон : 5:3
Режим частоты кадров : Постоянный
Частота кадров : 23,976 (24000/1001) кадра/сек
Цветовое пространство : YUV
Субдискретизация насыщенности : 4:2:0
Битовая глубина : 8 бит
Тип развёртки : Прогрессивная
Бит/(Пиксели*Кадры) : 0.297
Размер потока : 4,86 Гбайт (90%)
Библиотека кодирования : x264 core 148 r2638 7599210
Настройки программы : cabac=1 / ref=9 / deblock=1:-3:-3 / analyse=0x3:0x133 / me=umh / subme=11 / psy=1 / psy_rd=1.10:0.15 / mixed_ref=1 / me_range=48 / chroma_me=1 / trellis=2 / 8x8dct=1 / cqm=0 / deadzone=21,11 / fast_pskip=0 / chroma_qp_offset=-3 / threads=8 / lookahead_threads=1 / sliced_threads=0 / nr=0 / decimate=0 / interlaced=0 / bluray_compat=0 / constrained_intra=0 / bframes=8 / b_pyramid=2 / b_adapt=2 / b_bias=0 / direct=3 / weightb=1 / open_gop=0 / weightp=2 / keyint=240 / keyint_min=23 / scenecut=40 / intra_refresh=0 / rc_lookahead=60 / rc=crf / mbtree=0 / crf=19.0 / qcomp=0.60 / qpmin=0 / qpmax=69 / qpstep=4 / vbv_maxrate=40000 / vbv_bufsize=50000 / crf_max=0.0 / nal_hrd=none / filler=0 / ip_ratio=1.40 / pb_ratio=1.30 / aq=1:1.00
Default : Нет
Forced : Нет
Цветовой диапазон : Limited
Основные цвета : BT.709
Характеристики трансфера : BT.709
Коэффициенты матрицы : BT.709
Аудио #1
Идентификатор : 2
Формат : AC-3
Формат/Информация : Audio Coding 3
Расширение режима : CM (complete main)
Параметр Endianness формата : Big
Идентификатор кодека : A_AC3
Продолжительность : 1 ч. 53 м.
Вид битрейта : Постоянный
Битрейт : 160 Кбит/сек
Каналы : 2 канала
Расположение каналов : Front: L R
Частота : 48,0 КГц
Частота кадров : 31,250 кадров/сек (1536 spf)
Метод сжатия : С потерями
Размер потока : 130 Мбайт (2%)
Язык : Russian
Default : Да
Forced : Нет
Аудио #2
Идентификатор : 3
Формат : AC-3
Формат/Информация : Audio Coding 3
Расширение режима : CM (complete main)
Параметр Endianness формата : Big
Идентификатор кодека : A_AC3
Продолжительность : 1 ч. 53 м.
Вид битрейта : Постоянный
Битрейт : 448 Кбит/сек
Каналы : 2 канала
Расположение каналов : Front: L R
Частота : 48,0 КГц
Частота кадров : 31,250 кадров/сек (1536 spf)
Метод сжатия : С потерями
Размер потока : 363 Мбайт (7%)
Язык : French
Default : Нет
Forced : Нет
Текст
Идентификатор : 4
Формат : PGS
Режим смешивания : zlib
Идентификатор кодека : S_HDMV/PGS
Идентификатор кодека/Информация : Picture based subtitle format used on BDs/HD-DVDs
Продолжительность : 1 ч. 51 м.
Битрейт : 54,3 Кбит/сек
Count of elements : 2968
Размер потока : 43,2 Мбайт (1%)
Язык : English
Default : Нет
Forced : Нет
Меню
00:00:00.000 : en:00:00:00.000
00:08:32.387 : en:00:08:32.387
00:18:23.311 : en:00:18:23.311
00:29:20.384 : en:00:29:20.384
00:38:53.957 : en:00:38:53.957
00:49:00.146 : en:00:49:00.146
00:58:34.428 : en:00:58:34.428
01:09:12.398 : en:01:09:12.398
01:19:59.795 : en:01:19:59.795
01:29:50.635 : en:01:29:50.635
01:42:24.347 : en:01:42:24.347
01:49:28.645 : en:01:49:28.645

frame I:962 Avg QP:18.23 size:120189
frame P:31424 Avg QP:19.39 size: 65559
frame B:130452 Avg QP:21.04 size: 23340


Релиз от: Temperest


_________________
Проголосуй за трекер Открытый торрент трекер - RUS-MEDIA.ORG

Проголосуй Открытый торрент трекер - RUS-MEDIA.ORG



реклама партнёра


Вернуться к началу
 Профиль Отправить личное сообщение  
 
   Похожие торренты   Автор   Торрент   Размер 
В этой теме нет новых непрочитанных сообщений. В следующий раз я буду стрелять в сердце / La prochaine fois je viserai le coeur (Седрик Анже) [триллер, драма, криминал, 2014] BDRip 720p, Mvo [Лицензия]

Dracon

46 | 3

4.67 ГБ

В этой теме нет новых непрочитанных сообщений. В следующий раз я буду стрелять в сердце / La prochaine fois je viserai le coeur (Седрик Анже) [триллер, драма, криминал, 2014] BDRip 1080p, Mvo [Лицензия]

Dracon

27 | 1

8.24 ГБ

В этой теме нет новых непрочитанных сообщений. В следующий раз я буду стрелять в сердце / La prochaine fois je viserai le coeur (Седрик Анже) [триллер, драма, криминал, 2014] HDRip, Mvo [Лицензия]

Dracon

343 | 9

1.45 ГБ

В этой теме нет новых непрочитанных сообщений. В следующий раз я буду стрелять в сердце / La prochaine fois je viserai le coeur (Седрик Анже) [триллер, драма, криминал, 2014] HDRip, Mvo [Лицензия]

Dracon

127 | 5

2.18 ГБ

В этой теме нет новых непрочитанных сообщений. Шум в сердце / Le souffle au coeur (Луи Маль / Louis Malle) [1971г., Франция, драма, мелодрама, HDRip] MVOх2

Alfredovich

0 | 0

2.18 ГБ

В этой теме нет новых непрочитанных сообщений. Механика сердца / Jack et la mécanique du coeur (Стефан Берла, Матиас Мальзьё) [мультфильм, мюзикл, фэнтези, драма, мелодрама, приключения, 2013] BDRip 720p, Mvo+Sub

Dracon

212 | 37

2.19 ГБ

В этой теме нет новых непрочитанных сообщений. Место в сердце / Places in the Heart [драма, 1984] BDRip 720p, Mvo

salma3

28 | 3

4 ГБ


Начать новую тему Ответить на тему  [ 1 сообщение ] 




Для Мосгорсуда, Роскомнадзора и рекламодателей:: mosgorsud-torrent[собачка]yandex.ru