Торрент файл
скачать торрент магнет ссылка Добавлен: 16 янв 2016, 21:55
Размер: 6.41 ГБ
Сидеров: 67
Личеров: 19
Автор

СообщениеДобавлено: 16 янв 2016, 21:55 

Не в сети
Супермодератор
Аватара пользователя
Дата регистрации:
15 фев 2012, 16:44
Возраст: 28
Спасибо: 6659 / 2146
Сообщения: 46020
Год выхода: 2009
Жанр: Драма, комедия, криминал, биография
Режиссер: Джордж Хикенлупер
В ролях: Кевин Спейси, Бэрри Пеппер, Келли Престон, Джон Ловиц, Дэниэл Кэш, Спенсер Гаррет, Джеффри Р. Смит, Джефф Пастил, Грэм Грин, Янник Биссон
О фильме:
Байопик о бывшем республиканском лоббисте Джеке Абрамоффе, который в марте 2006 года был приговорен к пяти годам и десяти месяцам лишения свободы за мошенничество при заключении сделки по покупке кораблей-казино, ущерб от его незаконных операций оценивался в 21 миллион долларов.
«Миром правит жадность. Почувствуйте запах денег!»




Страна: Канада
Студия: Rollercoaster Entertainment, MCG
Продолжительность: 01:48:35
Перевод: Профессиональный (двухголосый, закадровый)

Файл
Формат: MKV
Качество: BDRip 720p
Видео: 1280x544 at 23.976 fps, x264@L4.1, 2pass, ~6500 kbps
Источник: Casino Jack 2010 Blu-ray 1080p AVC DTS-HD MA 5.1-CHDBits
Аудио#1: Russian: 48 kHz, AC3, 3/2 (L,C,R,l,r) + LFE ch, ~448.00 kbps | Двухголосый закадровый, R5
Аудио#2: English: 48 kHz, DTS, 3/2 (L,C,R,l,r) + LFE ch, ~1536.00 kbps |
Субтитры: Russian, English (SDH)
Навигация по главам: Есть
Общее
Уникальный идентификатор : 252055466419296311102948272227514897848 (0xBDA01DF67CA49EA896E6E5479D9CD5B8)
Полное имя : G:Casino.Jack.2010.720p.BluRay.Rus.Eng.HDCLUB.mkv
Формат : Matroska
Версия формата : Version 2
Размер файла : 6,41 Гбайт
Продолжительность : 1 ч. 48 м.
Общий поток : 8457 Кбит/сек
Название фильма : Casino Jack (2009) - Release for HDCLUB
Дата кодирования : UTC 2011-04-24 01:06:44
Программа кодирования : mkvmerge v3.4.0 ('Rapunzel') built on May 15 2010 09:38:20
Библиотека кодирования : libebml v0.8.0 + libmatroska v0.9.0
Видео
Идентификатор : 1
Формат : AVC
Формат/Информация : Advanced Video Codec
Профиль формата : High@L4.1
Параметр CABAC формата : Да
Параметр ReFrames формата : 12 кадров
Идентификатор кодека : V_MPEG4/ISO/AVC
Продолжительность : 1 ч. 48 м.
Битрейт : 6500 Кбит/сек
Ширина : 1280 пикселей
Высота : 544 пикселя
Соотношение сторон : 2,35:1
Режим частоты кадров : Постоянный
Частота кадров : 23,976 (24000/1001) кадра/сек
Цветовое пространство : YUV
Субдискретизация насыщенности : 4:2:0
Битовая глубина : 8 бит
Тип развёртки : Прогрессивная
Бит/(Пиксели*Кадры) : 0.389
Размер потока : 4,80 Гбайт (75%)
Заголовок : Release for HDCLUB
Библиотека кодирования : x264 core 114 r1913 5fd3dce
Настройки программы : cabac=1 / ref=12 / deblock=1:-3:-3 / analyse=0x3:0x113 / me=umh / subme=9 / psy=1 / psy_rd=1.00:0.00 / mixed_ref=1 / me_range=32 / chroma_me=1 / trellis=1 / 8x8dct=1 / cqm=0 / deadzone=21,11 / fast_pskip=0 / chroma_qp_offset=-2 / threads=6 / sliced_threads=0 / nr=0 / decimate=0 / interlaced=0 / constrained_intra=0 / bframes=6 / b_pyramid=2 / b_adapt=2 / b_bias=0 / direct=1 / weightb=1 / open_gop=0 / weightp=2 / keyint=250 / keyint_min=23 / scenecut=40 / intra_refresh=0 / rc_lookahead=40 / rc=2pass / mbtree=1 / bitrate=6500 / ratetol=1.0 / qcomp=0.60 / qpmin=0 / qpmax=69 / qpstep=4 / cplxblur=20.0 / qblur=0.5 / ip_ratio=1.40 / aq=1:0.80
Язык : English
Default : Да
Forced : Нет
Аудио #1
Идентификатор : 2
Формат : AC-3
Формат/Информация : Audio Coding 3
Расширение режима : CM (complete main)
Параметр Endianness формата : Big
Идентификатор кодека : A_AC3
Продолжительность : 1 ч. 48 м.
Вид битрейта : Постоянный
Битрейт : 448 Кбит/сек
Каналы : 6 каналов
Расположение каналов : Front: L C R, Side: L R, LFE
Частота : 48,0 КГц
Частота кадров : 31,250 кадров/сек (1536 spf)
Метод сжатия : С потерями
Размер потока : 348 Мбайт (5%)
Заголовок : AC3 5.1 448 kbps Двухголосый закадровый, R5
Язык : Russian
Default : Да
Forced : Нет
Аудио #2
Идентификатор : 3
Формат : DTS
Формат/Информация : Digital Theater Systems
Режим : 16
Параметр Endianness формата : Big
Идентификатор кодека : A_DTS
Продолжительность : 1 ч. 48 м.
Вид битрейта : Постоянный
Битрейт : 1509 Кбит/сек
Каналы : 6 каналов
Расположение каналов : Front: L C R, Side: L R, LFE
Частота : 48,0 КГц
Частота кадров : 93,750 кадра/сек (512 spf)
Битовая глубина : 24 бит
Метод сжатия : С потерями
Размер потока : 1,14 Гбайт (18%)
Заголовок : DTS 5.1 1536 kbps
Язык : English
Default : Нет
Forced : Нет
Текст #1
Идентификатор : 4
Формат : UTF-8
Идентификатор кодека : S_TEXT/UTF8
Идентификатор кодека/Информация : UTF-8 Plain Text
Заголовок : R5
Язык : Russian
Default : Нет
Forced : Нет
Текст #2
Идентификатор : 5
Формат : UTF-8
Идентификатор кодека : S_TEXT/UTF8
Идентификатор кодека/Информация : UTF-8 Plain Text
Заголовок : SDH
Язык : English
Default : Нет
Forced : Нет
Меню
00:00:00.000 : en:00:00:00.000
00:02:42.537 : en:00:02:42.537
00:05:10.685 : en:00:05:10.685
00:08:23.628 : en:00:08:23.628
00:15:13.579 : en:00:15:13.579
00:21:27.620 : en:00:21:27.620
00:25:56.138 : en:00:25:56.138
00:31:17.542 : en:00:31:17.542
00:36:36.319 : en:00:36:36.319
00:38:24.802 : en:00:38:24.802
00:41:04.045 : en:00:41:04.045
00:43:57.718 : en:00:43:57.718
00:45:57.129 : en:00:45:57.129
00:50:57.304 : en:00:50:57.304
00:53:38.924 : en:00:53:38.924
00:56:26.925 : en:00:56:26.925
00:59:10.839 : en:00:59:10.839
01:06:00.915 : en:01:06:00.915
01:09:29.415 : en:01:09:29.415
01:12:19.293 : en:01:12:19.293
01:15:24.812 : en:01:15:24.812
01:20:43.964 : en:01:20:43.964
01:24:20.055 : en:01:24:20.055
01:28:41.858 : en:01:28:41.858
01:31:08.171 : en:01:31:08.171
01:36:16.062 : en:01:36:16.062
01:38:22.396 : en:01:38:22.396
01:42:21.052 : en:01:42:21.052

Релиз от:


_________________
Проголосуй за трекер Открытый торрент трекер - RUS-MEDIA.ORG

Проголосуй Открытый торрент трекер - RUS-MEDIA.ORG



реклама партнёра


Вернуться к началу
 Профиль Отправить личное сообщение  
 
   Похожие торренты   Автор   Торрент   Размер 
В этой теме нет новых непрочитанных сообщений. Казино Рояль / Casino Royale [комедия, 1967] BDRip 720p, Mvo

salma3

3 | 2

6.77 ГБ

В этой теме нет новых непрочитанных сообщений. Джек-потрошитель / Jack the Ripper [триллер, драма, криминал, 1988] BDRip 720p, Mvo

salma3

90 | 32

6.93 ГБ

В этой теме нет новых непрочитанных сообщений. 007: Казино Рояль / 007: Casino Royale [боевик, триллер, криминал, 2006] BDRip 1080p, Dub

salma3

12 | 3

4.37 ГБ

В этой теме нет новых непрочитанных сообщений. Джек-попрыгунчик / Jumpin' Jack Flash [триллер, мелодрама, комедия, 1986] BDRip 720p, Mvo

salma3

23 | 2

6.79 ГБ

В этой теме нет новых непрочитанных сообщений. Джек-потрошитель / Jack the Ripper [Триллер, драма, криминал, 1988] BDRip 1080p, Mvo+Dvo+Sub

salma3

19 | 31

22.43 ГБ

В этой теме нет новых непрочитанных сообщений. Джек Ричер 2: Никогда не возвращайся / Jack Reacher: Never Go Back (боевик, триллер, криминал, детектив, приключения, 2016) BDRip 720p от HELLYWOOD | Лицензия

marya111

439 | 152

5.76 ГБ

В этой теме нет новых непрочитанных сообщений. Казино Рояль / Casino Royale [Боевик, триллер, приключения, 2006] BDRip 1080p, Dub

salma3

13 | 8

15.49 ГБ


Начать новую тему Ответить на тему  [ 1 сообщение ] 




Для Мосгорсуда, Роскомнадзора и рекламодателей:: mosgorsud-torrent[собачка]yandex.ru