Торрент файл
скачать торрент магнет ссылка Добавлен: 12 янв 2016, 14:53
Размер: 3.64 ГБ
Сидеров: 222
Личеров: 55
Автор

СообщениеДобавлено: 12 янв 2016, 14:53 

В сети
Супермодератор
Аватара пользователя
Дата регистрации:
15 фев 2012, 16:44
Возраст: 28
Спасибо: 7223 / 2147
Сообщения: 67643
Год выхода: 2007
Жанр: ужасы, триллер, драма
Режиссер: Грегори Джейкобс

В ролях:
Эмили Блант — Girl, Эштон Холмс — Guy, Мартин Донован — Highway Patrolman, Нед Беллами — Snowplow Driver, Йен А. Уоллес — Priest, Донни Джеймс Лукас — Stranger, Челан Симмонс — Blonde Girl, Даррен Мур — Clerk, Линден Бэнкс — Proctor, Каз Один Дарко — Teenage Boy #1, Хит Хореджда — Teenage Boy #2, Йен Томпсон — Trucker.

О фильме:
Ежегодно в мире бесследно исчезают тысячи людей. Как правило, тому всегда можно, подобрать рациональное объяснение. Но бывает и по-другому… Пара студентов, поехав домой на каникулы, решает воспользоваться дорогой, явно не пользующейся большой популярностью. Увы, слишком поздно герои вспоминают, что не следует доверять коротким, но заброшенным путям. Первая же ночь в этой пустынной местности проясняет, почему она так безлюдна: жаждущие крови призраки погибших на этой дороге восстают в сумерках из могил, дабы охотиться на незваных гостей. И если герои не найдут способа дать отпор злобным мертвецам, они никогда больше не увидят своих родных и близких…



Страна: США Великобритания
Студия: Blueprint Pictures, Section Eight Ltd., TriStar Pictures
Продолжительность: 01:27:02
Перевод: Профессиональный многоголосый, Оригинал

Файл
Кодек: MPEG4
Качество: HDTV 1080i
Видео: 1920x1080 (16:9), 25.000 fps, MPEG4, 5031 Kbps
Звук:
Аудио #1: AC3, 384 Kbps, 48.0 KHz, 6 ch (Rus) Профессиональный многоголосый
Аудио #2: AC3, 448 Kbps, 48.0 KHz, 2 ch (Eng) Оригинал
Субтитры: Нет





Формат : Matroska
Версия формата : Version 2
Размер файла : 3,64 Гбайт
Продолжительность : 1 ч. 27 м.
Режим общего битрейта : Переменный
Общий поток : 5982 Кбит/сек
Дата кодирования : UTC 2016-01-11 08:51:16
Программа кодирования : mkvmerge v5.4.0 ('Piper') built on Mar 10 2012 13:34:39
Библиотека кодирования : libebml v1.2.3 + libmatroska v1.3.0

Видео
Идентификатор : 1
Формат : AVC
Формат/Информация : Advanced Video Codec
Профиль формата : High@L4.0
Параметр CABAC формата : Да
Параметр ReFrames формата : 4 кадра
Параметр GOP формата : M=4, N=32
Идентификатор кодека : V_MPEG4/ISO/AVC
Вид битрейта : Переменный
Битрейт : 5031 Кбит/сек
Максимальный битрейт : 40,0 Мбит/сек
Ширина : 1920 пикселей
Высота : 1080 пикселей
Соотношение сторон : 16:9
Режим частоты кадров : Переменный
Частота кадров в оригинале : 25,000 кадров/сек
Стандарт вещания : Component
Цветовое пространство : YUV
Субдискретизация насыщенности : 4:2:0
Битовая глубина : 8 бит
Тип развёртки : Чересстрочная
Порядок развёртки : Верхнее поле первое
Заголовок : Wind Chill / Призраки / Пронизывающий ветер (2007)
Язык : English
Default : Да
Forced : Нет
Основные цвета : BT.709
Характеристики трансфера : BT.709
Коэффициенты матрицы : BT.709
colour_range : Limited

Аудио #1
Идентификатор : 2
Формат : AC-3
Формат/Информация : Audio Coding 3
Расширение режима : CM (complete main)
Параметр Endianness формата : Big
Идентификатор кодека : A_AC3
Продолжительность : 1 ч. 27 м.
Вид битрейта : Постоянный
Битрейт : 384 Кбит/сек
Каналы : 6 каналов
Расположение каналов : Front: L C R, Side: L R, LFE
Частота : 48,0 КГц
Битовая глубина : 16 бит
Метод сжатия : С потерями
Задержка видео : 88 мс.
Размер потока : 239 Мбайт (6%)
Заголовок : MVO (Russian)
Язык : Russian
Default : Да
Forced : Нет

Аудио #2
Идентификатор : 3
Формат : AC-3
Формат/Информация : Audio Coding 3
Расширение режима : CM (complete main)
Параметр Endianness формата : Big
Идентификатор кодека : A_AC3
Продолжительность : 1 ч. 27 м.
Вид битрейта : Постоянный
Битрейт : 448 Кбит/сек
Каналы : 2 канала
Расположение каналов : Front: L R
Частота : 48,0 КГц
Битовая глубина : 16 бит
Метод сжатия : С потерями
Задержка видео : 88 мс.
Размер потока : 279 Мбайт (7%)
Заголовок : Original (English)
Язык : English
Default : Нет
Forced : Нет


Релиз от: maverick_lp


_________________
Проголосуй за трекер Открытый торрент трекер - RUS-MEDIA.ORG

Проголосуй Открытый торрент трекер - RUS-MEDIA.ORG


Вернуться к началу
 Профиль Отправить личное сообщение  
 
   Похожие торренты   Автор   Торрент   Размер 
В этой теме нет новых непрочитанных сообщений. Призраки / Wind Chill [ужасы, триллер, драма, 2007] WEB-DL 720p, Mvo

salma3

144 | 30

2.95 ГБ

В этой теме нет новых непрочитанных сообщений. Призраки / Wind Chill [ужасы, триллер, драма, 2007] BDRip 1080p, Mvo

salma3

96 | 31

6.8 ГБ

В этой теме нет новых непрочитанных сообщений. Даркнет / Darknet [S01] [ужасы, триллер, 2013] HDTV 1080i, Dvo

salma3

19 | 27

6.82 ГБ

В этой теме нет новых непрочитанных сообщений. Летучие мыши / Bats [ужасы, триллер, 1999] HDTV 1080i, Mvo+Sub

salma3

42 | 14

5.41 ГБ

В этой теме нет новых непрочитанных сообщений. Соблюдение / Observance [Ужасы, триллер, детектив, 2015] HDTV 1080i, Mvo

salma3

321 | 73

3.26 ГБ

В этой теме нет новых непрочитанных сообщений. Расчлененное тело / Body Parts [ужасы, триллер, 1991] HDTV 1080i, Mvo

salma3

25 | 11

2.78 ГБ

В этой теме нет новых непрочитанных сообщений. Призраки опиума / Cookers [триллер, ужасы, драма, 2001] DVDRip-AVC, Dvo

salma3

71 | 9

744.37 МБ


Начать новую тему Ответить на тему  [ 1 сообщение ] 




Для Мосгорсуда, Роскомнадзора и рекламодателей:: mosgorsud-torrent[собачка]yandex.ru
cron