Торрент файл
скачать торрент магнет ссылка Добавлен: 05 янв 2016, 16:12
Размер: 7.95 ГБ
Сидеров: 460
Личеров: 38
Автор

СообщениеДобавлено: 05 янв 2016, 16:12 

Не в сети
Зам. Админа
Аватара пользователя
Дата регистрации:
02 дек 2010, 12:39
Спасибо: 12625 / 214
Сообщения: 28010
Название: Скауты против зомби
Оригинальное название: Scouts Guide to the Zombie Apocalypse
Год выхода: 2015
Жанр: ужасы, комедия, ...
Режиссер: Даррен Грант
В ролях: Тай Шеридан, Логан Миллер, Джои Морган, Сара Дюмон, Дэвид Кокнер, Холстон Сейдж, Клорис Личмен, Ники Косс, Хирам А. Мюррэй, Лукас Гейдж, ...

О фильме: Встречайте самую нелепую команду героев в мире — трое закадычных друзей-бойскаутов и безбашенная официантка. Именно им выпадает миссия остановить зомбиапокалипсис, который уже погрузил в хаос захолустный сонный городок и грозит охватить всю планету. Последняя надежда человечества — скаутские приемы и умения. К борьбе с зомби будь готов! Всегда готов!



Официальный сайт

Страна: США
Студия: Broken Road Productions, Brucks Entertainment, Oops Doughnuts Productions
Продолжительность: 01:32:45
Перевод:
Профессиональный (дублированный) iTunes
Любительский (двухголосый, закадровый)

Кодек: x264
Качество: BDRip 1080p
Видео: 1920x804, 10000 kbps, 23,976 fps
Звук:
Аудио #1: AC-3, 6 ch, 384 kbps (Rus) - Dub iTunes
Аудио #2: AC-3, 2 ch, 384 kbps (Rus) - DVOL
Аудио #3: DTS, 6 ch, 1509 kbps (Eng)
Субтитры: Английские

x264 [info]: frame I:1202 Avg QP:17.73 size:227867
x264 [info]: frame P:35643 Avg QP:20.42 size: 90518
x264 [info]: frame B:96582 Avg QP:21.69 size: 35770
x264 [info]: consecutive B-frames: 6.8% 5.7% 11.2% 14.8% 17.7% 34.7% 5.9% 1.0% 1.0% 0.9% 0.3%

Общее
Уникальный идентификатор : 196485800667257324061795242840951549074 (0x93D1C9E93D3A01D5B54D53DC436AEC92)
Полное имя : Скауты против зомби (Scouts Guide to the Zombie Apocalypse) 2015 BDRip 1080p.mkv
Формат : Matroska
Версия формата : Version 2
Размер файла : 7,95 Гбайт
Продолжительность : 1 ч. 32 м.
Общий поток : 12,3 Мбит/сек
Дата кодирования : UTC 2016-01-05 11:22:01
Программа кодирования : mkvmerge v4.0.0 ('The Stars were mine') сборка от Jun 6 2010 16:18:42
Библиотека кодирования : libebml v1.0.0 + libmatroska v1.0.0

Видео
Идентификатор : 1
Формат : AVC
Формат/Информация : Advanced Video Codec
Профиль формата : High@L4.1
Параметр CABAC формата : Да
Параметр ReFrames формата : 5 кадров
Идентификатор кодека : V_MPEG4/ISO/AVC
Продолжительность : 1 ч. 32 м.
Битрейт : 10000 Кбит/сек
Ширина : 1920 пикселей
Высота : 804 пикселя
Соотношение сторон : 2,40:1
Режим частоты кадров : Постоянный
Частота кадров : 23,976 кадра/сек
Цветовое пространство : YUV
Субдискретизация насыщенности : 4:2:0
Битовая глубина : 8 бит
Тип развёртки : Прогрессивная
Бит/(Пиксели*Кадры) : 0.270
Размер потока : 6,32 Гбайт (79%)
Библиотека кодирования : x264 core 146 r2538 121396c
Настройки программы : cabac=1 / ref=5 / deblock=1:-3:-3 / analyse=0x3:0x133 / me=umh / subme=11 / psy=1 / psy_rd=1.00:0.00 / mixed_ref=1 / me_range=32 / chroma_me=1 / trellis=2 / 8x8dct=1 / cqm=0 / deadzone=21,11 / fast_pskip=1 / chroma_qp_offset=-4 / threads=12 / lookahead_threads=2 / sliced_threads=0 / nr=0 / decimate=0 / interlaced=0 / bluray_compat=0 / constrained_intra=0 / bframes=10 / b_pyramid=2 / b_adapt=2 / b_bias=0 / direct=3 / weightb=1 / open_gop=0 / weightp=2 / keyint=240 / keyint_min=23 / scenecut=40 / intra_refresh=0 / rc_lookahead=60 / rc=2pass / mbtree=0 / bitrate=10000 / ratetol=1.0 / qcomp=0.60 / qpmin=0 / qpmax=69 / qpstep=4 / cplxblur=20.0 / qblur=0.5 / vbv_maxrate=50000 / vbv_bufsize=62500 / nal_hrd=none / filler=0 / ip_ratio=1.40 / pb_ratio=1.30 / aq=1:0.80
Язык : English
Default : Нет
Forced : Нет

Аудио #1
Идентификатор : 2
Формат : AC-3
Формат/Информация : Audio Coding 3
Расширение режима : CM (complete main)
Параметр Endianness формата : Big
Идентификатор кодека : A_AC3
Продолжительность : 1 ч. 32 м.
Вид битрейта : Постоянный
Битрейт : 384 Кбит/сек
Каналы : 6 каналов
Расположение каналов : Front: L C R, Side: L R, LFE
Частота : 48,0 КГц
Метод сжатия : С потерями
Размер потока : 255 Мбайт (3%)
Заголовок : Dub iTunes
Язык : Russian
Default : Нет
Forced : Нет

Аудио #2
Идентификатор : 3
Формат : AC-3
Формат/Информация : Audio Coding 3
Расширение режима : CM (complete main)
Параметр Endianness формата : Big
Идентификатор кодека : A_AC3
Продолжительность : 1 ч. 32 м.
Вид битрейта : Постоянный
Битрейт : 384 Кбит/сек
Каналы : 2 канала
Расположение каналов : Front: L R
Частота : 48,0 КГц
Метод сжатия : С потерями
Размер потока : 255 Мбайт (3%)
Заголовок : DVOL
Язык : Russian
Default : Нет
Forced : Нет

Аудио #3
Идентификатор : 4
Формат : DTS
Формат/Информация : Digital Theater Systems
Режим : 16
Параметр Endianness формата : Big
Идентификатор кодека : A_DTS
Продолжительность : 1 ч. 32 м.
Вид битрейта : Постоянный
Битрейт : 1509 Кбит/сек
Каналы : 6 каналов
Расположение каналов : Front: L C R, Side: L R, LFE
Частота : 48,0 КГц
Битовая глубина : 24 бит
Метод сжатия : С потерями
Размер потока : 1001 Мбайт (12%)
Язык : English
Default : Нет
Forced : Нет

Текст
Идентификатор : 5
Формат : UTF-8
Идентификатор кодека : S_TEXT/UTF8
Идентификатор кодека/Информация : UTF-8 Plain Text
Язык : English
Default : Нет
Forced : Нет




реклама партнёра


Вернуться к началу
 Профиль  
 
   Похожие торренты   Автор   Торрент   Размер 
В этой теме нет новых непрочитанных сообщений. Скауты против зомби / Scouts Guide to the Zombie Apocalypse (Кристофер Лэндон) [Ужасы, комедия, 2015] BDRip-AVC, dub [iTunes]

Dracon

344 | 19

1.42 ГБ

В этой теме нет новых непрочитанных сообщений. Скауты против зомби / Scouts Guide to the Zombie Apocalypse (Кристофер Лэндон) [Ужасы, комедия, 2015] BDRip 720p, dub [iTunes]

Dracon

1010 | 49

3.52 ГБ

В этой теме нет новых непрочитанных сообщений. Скауты против зомби / Scouts Guide to the Zombie Apocalypse (Кристофер Лэндон) [Ужасы, комедия, 2015] HDRip, dub [iTunes]

Dracon

2416 | 122

1.37 ГБ

В этой теме нет новых непрочитанных сообщений. Скауты против зомби / Scouts Guide to the Zombie Apocalypse (Кристофер Лэндон) [Ужасы, комедия, 2015] BDRip 1080p, dub [Чистый звук]

Dracon

149 | 7

6.68 ГБ

В этой теме нет новых непрочитанных сообщений. Скауты против зомби / Scouts Guide to the Zombie Apocalypse (Кристофер Лэндон) [Ужасы, комедия, 2015] BDRip 720p, dub [Чистый звук]

Dracon

110 | 9

4.49 ГБ

В этой теме нет новых непрочитанных сообщений. Скауты против зомби / Scouts Guide to the Zombie Apocalypse (Кристофер Лэндон) [Ужасы, комедия, 2015] HDRip, dub [Чистый звук]

Dracon

282 | 3

1.37 ГБ

В этой теме нет новых непрочитанных сообщений. Мы с братками против зомби апокалипсиса / Me And My Mates vs The Zombie Apocalypse [ужасы, комедия, 2015] DVDRip, Avo

salma3

266 | 18

1.37 ГБ


Начать новую тему Ответить на тему  [ 1 сообщение ] 




Для Мосгорсуда, Роскомнадзора и рекламодателей:: mosgorsud-torrent[собачка]yandex.ru