Торрент файл
скачать торрент магнет ссылка Добавлен: 05 янв 2016, 12:31
Размер: 3.52 ГБ
Сидеров: 1010
Личеров: 49
Автор

СообщениеДобавлено: 05 янв 2016, 12:31 

Не в сети
Зам. Админа
Аватара пользователя
Дата регистрации:
02 дек 2010, 12:39
Спасибо: 12652 / 214
Сообщения: 28010

Информация о фильме
Название: Скауты против зомби
Оригинальное название: Scouts Guide to the Zombie Apocalypse
Год выхода: 2015
Жанр: ужасы, комедия
Режиссер: Кристофер Лэндон
В ролях: Тай Шеридан, Логан Миллер, Джои Морган, Сара Дюмон, Дэвид Кокнер, Холстон Сейдж, Клорис Личмен, Ники Косс, Хирам А. Мюррэй, Лукас Гейдж
О фильме: Встречайте самую нелепую команду героев в мире — трое закадычных друзей-бойскаутов и безбашенная официантка. Именно им выпадает миссия остановить зомбиапокалипсис, который уже погрузил в хаос захолустный сонный городок и грозит охватить всю планету. Последняя надежда человечества — скаутские приемы и умения. К борьбе с зомби будь готов! Всегда готов!

Выпущено: США / Paramount Pictures, Broken Road Productions
Продолжительность: 01:32:45
Озвучивание: Дублированное [iTunes]
Файл
Формат: MKV
Качество: BDRip 720p
Видео: MPEG-4 AVC, 4400 kb/s, 1280x534
Аудио: Russian: AC3, 384 kb/s (6 ch) / English: AC3, 640 kb/s (6 ch)
Субтитры: English
Format : Matroska
Format version : Version 2
File size : 3.52 GiB
Duration : 1h 32mn
Overall bit rate : 5 435 Kbps
Encoded date : UTC 2016-01-04 20:20:51
Writing application : mkvmerge v7.8.0 ('River Man') 32bit built on Apr 3 2015 12:11:22
Writing library : libebml v1.3.1 + libmatroska v1.4.2

Video
ID : 1
Format : AVC
Format/Info : Advanced Video Codec
Format profile : High@L4.1
Format settings, CABAC : Yes
Format settings, ReFrames : 9 frames
Codec ID : V_MPEG4/ISO/AVC
Duration : 1h 32mn
Bit rate : 4 400 Kbps
Width : 1 280 pixels
Height : 534 pixels
Display aspect ratio : 2.40:1
Frame rate mode : Constant
Frame rate : 23.976 fps
Color space : YUV
Chroma subsampling : 4:2:0
Bit depth : 8 bits
Scan type : Progressive
Bits/(Pixel*Frame) : 0.268
Stream size : 2.79 GiB (79%)
Writing library : x264 core 142 r2431+42 c69a006 tMod [8-bit@all X86_64]
Encoding settings : cabac=1 / ref=9 / deblock=1:-3:-3 / analyse=0x3:0x133 / me=umh / subme=11 / psy=1 / fade_compensate=0.00 / psy_rd=1.00:0.05 / mixed_ref=1 / me_range=32 / chroma_me=1 / trellis=2 / 8x8dct=1 / cqm=0 / deadzone=21,11 / fast_pskip=0 / chroma_qp_offset=-3 / threads=12 / lookahead_threads=2 / sliced_threads=0 / nr=0 / decimate=0 / interlaced=0 / bluray_compat=0 / constrained_intra=0 / fgo=0 / bframes=8 / b_pyramid=2 / b_adapt=2 / b_bias=0 / direct=3 / weightb=1 / open_gop=0 / weightp=2 / keyint=250 / keyint_min=23 / scenecut=40 / intra_refresh=0 / rc_lookahead=80 / rc=2pass / mbtree=1 / bitrate=4400 / ratetol=1.0 / qcomp=0.70 / qpmin=0:0:0 / qpmax=69:69:69 / qpstep=4 / cplxblur=20.0 / qblur=0.5 / vbv_maxrate=62500 / vbv_bufsize=32768 / nal_hrd=none / filler=0 / ip_ratio=1.40 / aq=3:1.00 / aq-sensitivity=10.00 / aq-factor=1.00:1.00:1.00 / aq2=0 / aq3=0
Language : English
Default : Yes
Forced : No

Audio #1
ID : 2
Format : AC-3
Format/Info : Audio Coding 3
Mode extension : CM (complete main)
Format settings, Endianness : Big
Codec ID : A_AC3
Duration : 1h 32mn
Bit rate mode : Constant
Bit rate : 384 Kbps
Channel(s) : 6 channels
Channel positions : Front: L C R, Side: L R, LFE
Sampling rate : 48.0 KHz
Bit depth : 16 bits
Compression mode : Lossy
Stream size : 255 MiB (7%)
Language : Russian
Default : Yes
Forced : No

Audio #2
ID : 3
Format : AC-3
Format/Info : Audio Coding 3
Mode extension : CM (complete main)
Format settings, Endianness : Big
Codec ID : A_AC3
Duration : 1h 32mn
Bit rate mode : Constant
Bit rate : 640 Kbps
Channel(s) : 6 channels
Channel positions : Front: L C R, Side: L R, LFE
Sampling rate : 48.0 KHz
Bit depth : 16 bits
Compression mode : Lossy
Stream size : 425 MiB (12%)
Language : English
Default : No
Forced : No

Text
ID : 4
Format : PGS
Muxing mode : zlib
Codec ID : S_HDMV/PGS
Codec ID/Info : Picture based subtitle format used on BDs/HD-DVDs
Language : English
Default : No
Forced : No

Menu
00:00:00.000 : :en: Chapter 01
00:06:45.154 : :en: Chapter 02
00:14:53.767 : :en: Chapter 03
00:21:31.164 : :en: Chapter 05
00:27:01.953 : :en: Chapter 05
00:31:30.597 : :en: Chapter 06
00:39:25.237 : :en: Chapter 07
00:45:57.838 : :en: Chapter 08
00:51:13.987 : :en: Chapter 09
00:57:32.198 : :en: Chapter 10
01:06:08.130 : :en: Chapter 11
01:12:08.949 : :en: Chapter 12
01:20:00.003 : :en: Chapter 13
01:26:04.534 : :en: Chapter 14



Вернуться к началу
 Профиль  
 
   Похожие торренты   Автор   Торрент   Размер 
В этой теме нет новых непрочитанных сообщений. Скауты против зомби / Scouts Guide to the Zombie Apocalypse (Кристофер Лэндон) [Ужасы, комедия, 2015] BDRip-AVC, dub [iTunes]

Dracon

344 | 19

1.42 ГБ

В этой теме нет новых непрочитанных сообщений. Скауты против зомби / Scouts Guide to the Zombie Apocalypse (Кристофер Лэндон) [Ужасы, комедия, 2015] BDRip 1080p, dub [iTunes]+dvo

Dracon

460 | 38

7.95 ГБ

В этой теме нет новых непрочитанных сообщений. Скауты против зомби / Scouts Guide to the Zombie Apocalypse (Кристофер Лэндон) [Ужасы, комедия, 2015] HDRip, dub [iTunes]

Dracon

2416 | 122

1.37 ГБ

В этой теме нет новых непрочитанных сообщений. Скауты против зомби / Scouts Guide to the Zombie Apocalypse (Кристофер Лэндон) [Ужасы, комедия, 2015] BDRip 720p, dub [Чистый звук]

Dracon

110 | 9

4.49 ГБ

В этой теме нет новых непрочитанных сообщений. Скауты против зомби / Scouts Guide to the Zombie Apocalypse (Кристофер Лэндон) [Ужасы, комедия, 2015] BDRip 1080p, dub [Чистый звук]

Dracon

149 | 7

6.68 ГБ

В этой теме нет новых непрочитанных сообщений. Скауты против зомби / Scouts Guide to the Zombie Apocalypse (Кристофер Лэндон) [Ужасы, комедия, 2015] HDRip, dub [Чистый звук]

Dracon

282 | 3

1.37 ГБ

В этой теме нет новых непрочитанных сообщений. Мы с братками против зомби апокалипсиса / Me And My Mates vs The Zombie Apocalypse [ужасы, комедия, 2015] DVDRip, Avo

salma3

266 | 18

1.37 ГБ


Начать новую тему Ответить на тему  [ 1 сообщение ] 




Для Мосгорсуда, Роскомнадзора и рекламодателей:: mosgorsud-torrent[собачка]yandex.ru
cron