Торрент файл
скачать торрент магнет ссылка Добавлен: 28 дек 2015, 14:16
Размер: 4.61 ГБ
Сидеров: 161
Личеров: 9
Автор

СообщениеДобавлено: 28 дек 2015, 14:16 

Не в сети
Супермодератор
Аватара пользователя
Дата регистрации:
15 фев 2012, 16:44
Возраст: 28
Спасибо: 7223 / 2147
Сообщения: 67785
Год выпуска: 1990
Страна: Австралия, США
Жанр: драма, мелодрама, приключения, вестерн
Продолжительность: 01:59:54
Перевод: профессиональный многоголосый, профессиональный двухголосый, авторский

Режиссёр: Саймон Уинсер

В ролях: Том Селлек, Лаура Сан Джакомо, Алан Рикман, Крис Хэйвуд, Рон Хэддрик, Тони Боннер, Джером Элерс, Конор МакДермоттрой, Роджер Уорд, Бен Мендельсон, Стив Додд, Карен Дэвитт, Кайли Фостер, Уильям Заппа, Джонатан Свит

Описание: Знаменитого американского стрелка на дальние дистанции Мэтью Куигли выписывает себе крупный землевладелец из Австралии. Куигли с ружьём и оптикой прибывает на континент и только на месте узнаёт бесчеловечные подробности свой будущей «работы» — его наняли, чтобы с земель, которые нужно освоить, террором согнать немногочисленные племена австралийских аборигенов, а непокорных — вообще убить, отстреливая, как диких собак динго. Но ковбой, прибывший из свободолюбивой Америки, восстаёт против несправедливости и жестокости и начинает свою войну уже против землевладельца и его присных, и прекрасная, но безумная женщина, которая тоже требует его защиты, будет ему в этом нежданной обузой и подмогой...



Качество: BDRip 720p Сравнение с исходником
Формат: MKV
Видео: MPEG-4 AVC, 4431 Kбит/с, 1280x548, 23,976 кадра/с
Аудио 1: русский, AC3, 192 kbps, 2 ch, 48 kHz [профессиональный многоголосый, НТВ]
Аудио 2: русский, AC3, 192 kbps, 2 ch, 48 kHz [профессиональный двухголосый, НТВ+]
Аудио 3: русский, AC3, 192 kbps, 2 ch, 48 kHz [авторский, Михаил Иванов]
Аудио 4: русский, AC3, 192 kbps, 2 ch, 48 kHz [авторский, Сергей Кузнецов]
Аудио 5: английский, AC3, 192 kbps, 2 ch, 48 kHz [оригинал]
Субтитры 1: русские
Субтитры 2: английские

Общее
Уникальный идентификатор : 191616758043226856432525538170096874107 (0x90280B9349B5AF08A65A1795E248727B)
Полное имя : D:VideoКуигли в Австралии.1990.BDRip.720p.mkv
Формат : Matroska
Версия формата : Version 4 / Version 2
Размер файла : 4,61 Гбайт
Продолжительность : 1 ч. 59 м.
Общий поток : 5501 Кбит/сек
Дата кодирования : UTC 2015-12-27 04:16:45
Программа кодирования : mkvmerge v8.2.0 ('World of Adventure') 64bit
Библиотека кодирования : libebml v1.3.1 + libmatroska v1.4.2
DURATION : 01:54:02.835000000
NUMBER_OF_FRAMES : 959
NUMBER_OF_BYTES : 30363
_STATISTICS_WRITING_APP : mkvmerge v8.2.0 ('World of Adventure') 64bit
_STATISTICS_WRITING_DATE_UTC : 2015-12-27 04:16:45
_STATISTICS_TAGS : BPS DURATION NUMBER_OF_FRAMES NUMBER_OF_BYTES

Видео
Идентификатор : 1
Формат : AVC
Формат/Информация : Advanced Video Codec
Профиль формата : High@L4.1
Параметр CABAC формата : Да
Параметр ReFrames формата : 9 кадров
Идентификатор кодека : V_MPEG4/ISO/AVC
Продолжительность : 1 ч. 59 м.
Битрейт : 4431 Кбит/сек
Ширина : 1280 пикселей
Высота : 548 пикселей
Соотношение сторон : 2,35:1
Режим частоты кадров : Постоянный
Частота кадров : 23,976 кадра/сек
Цветовое пространство : YUV
Субдискретизация насыщенности : 4:2:0
Битовая глубина : 8 бит
Тип развёртки : Прогрессивная
Бит/(Пиксели*Кадры) : 0.263
Размер потока : 3,71 Гбайт (81%)
Библиотека кодирования : x264 core 146 r2538 121396c
Настройки программы : cabac=1 / ref=9 / deblock=1:-3:-3 / analyse=0x3:0x113 / me=umh / subme=10 / psy=1 / psy_rd=1.00:0.15 / mixed_ref=1 / me_range=32 / chroma_me=1 / trellis=2 / 8x8dct=1 / cqm=0 / deadzone=21,11 / fast_pskip=1 / chroma_qp_offset=-3 / threads=6 / lookahead_threads=1 / sliced_threads=0 / nr=0 / decimate=1 / interlaced=0 / bluray_compat=0 / constrained_intra=0 / bframes=11 / b_pyramid=2 / b_adapt=2 / b_bias=0 / direct=1 / weightb=1 / open_gop=0 / weightp=2 / keyint=230 / keyint_min=23 / scenecut=40 / intra_refresh=0 / rc_lookahead=40 / rc=crf / mbtree=0 / crf=21.5 / qcomp=0.60 / qpmin=0 / qpmax=69 / qpstep=4 / vbv_maxrate=40000 / vbv_bufsize=50000 / crf_max=0.0 / nal_hrd=none / filler=0 / ip_ratio=1.40 / pb_ratio=1.30 / aq=1:1.00
Язык : English
Default : Да
Forced : Нет
DURATION : 01:59:54.896000000
NUMBER_OF_FRAMES : 172505
NUMBER_OF_BYTES : 4080917303
_STATISTICS_WRITING_APP : mkvmerge v8.2.0 ('World of Adventure') 64bit
_STATISTICS_WRITING_DATE_UTC : 2015-12-27 04:16:45
_STATISTICS_TAGS : BPS DURATION NUMBER_OF_FRAMES NUMBER_OF_BYTES

Аудио #1
Идентификатор : 2
Формат : AC-3
Формат/Информация : Audio Coding 3
Расширение режима : CM (complete main)
Параметр Endianness формата : Big
Идентификатор кодека : A_AC3
Продолжительность : 1 ч. 59 м.
Вид битрейта : Постоянный
Битрейт : 192 Кбит/сек
Каналы : 2 канала
Расположение каналов : Front: L R
Частота : 48,0 КГц
Метод сжатия : С потерями
Размер потока : 165 Мбайт (3%)
Заголовок : MVO (HTB)
Язык : Russian
Default : Да
Forced : Нет

Аудио #2
Идентификатор : 3
Формат : AC-3
Формат/Информация : Audio Coding 3
Расширение режима : CM (complete main)
Параметр Endianness формата : Big
Идентификатор кодека : A_AC3
Продолжительность : 1 ч. 59 м.
Вид битрейта : Постоянный
Битрейт : 192 Кбит/сек
Каналы : 2 канала
Расположение каналов : Front: L R
Частота : 48,0 КГц
Метод сжатия : С потерями
Размер потока : 165 Мбайт (3%)
Заголовок : DVO (HTB+)
Язык : Russian
Default : Нет
Forced : Нет

Аудио #3
Идентификатор : 4
Формат : AC-3
Формат/Информация : Audio Coding 3
Расширение режима : CM (complete main)
Параметр Endianness формата : Big
Идентификатор кодека : A_AC3
Продолжительность : 1 ч. 59 м.
Вид битрейта : Постоянный
Битрейт : 192 Кбит/сек
Каналы : 2 канала
Расположение каналов : Front: L R
Частота : 48,0 КГц
Метод сжатия : С потерями
Размер потока : 165 Мбайт (3%)
Заголовок : AVO (Михаил Иванов)
Язык : Russian
Default : Нет
Forced : Нет

Аудио #4
Идентификатор : 5
Формат : AC-3
Формат/Информация : Audio Coding 3
Расширение режима : CM (complete main)
Параметр Endianness формата : Big
Идентификатор кодека : A_AC3
Продолжительность : 1 ч. 59 м.
Вид битрейта : Постоянный
Битрейт : 192 Кбит/сек
Каналы : 2 канала
Расположение каналов : Front: L R
Частота : 48,0 КГц
Метод сжатия : С потерями
Размер потока : 165 Мбайт (3%)
Заголовок : AVO (Сергей Кузнецов)
Язык : Russian
Default : Нет
Forced : Нет

Аудио #5
Идентификатор : 6
Формат : AC-3
Формат/Информация : Audio Coding 3
Расширение режима : CM (complete main)
Параметр Endianness формата : Big
Идентификатор кодека : A_AC3
Продолжительность : 1 ч. 59 м.
Вид битрейта : Постоянный
Битрейт : 192 Кбит/сек
Каналы : 2 канала
Расположение каналов : Front: L R
Частота : 48,0 КГц
Метод сжатия : С потерями
Размер потока : 165 Мбайт (3%)
Заголовок : Original
Язык : English
Default : Нет
Forced : Нет

Текст #1
Идентификатор : 7
Формат : UTF-8
Идентификатор кодека : S_TEXT/UTF8
Идентификатор кодека/Информация : UTF-8 Plain Text
Заголовок : русский
Язык : Russian
Default : Нет
Forced : Нет

Текст #2
Идентификатор : 8
Формат : UTF-8
Идентификатор кодека : S_TEXT/UTF8
Идентификатор кодека/Информация : UTF-8 Plain Text
Заголовок : английский
Default : Нет
Forced : Нет



_________________
Проголосуй за трекер Открытый торрент трекер - RUS-MEDIA.ORG

Проголосуй Открытый торрент трекер - RUS-MEDIA.ORG


Вернуться к началу
 Профиль Отправить личное сообщение  
 
   Похожие торренты   Автор   Торрент   Размер 
В этой теме нет новых непрочитанных сообщений. Куигли в Австралии / Quigley Down Under [драма, мелодрама, приключения, вестерн, 1990] BDRip 1080p, Mvo+Dvo+Avo+Sub

salma3

27 | 5

12.99 ГБ

В этой теме нет новых непрочитанных сообщений. Танцующий с волками / Dances with Wolves [драма, приключения, вестерн, 1990] BDRip-HEVC 1080p, Dub [Anniversary Edition]

salma3

33 | 27

12.21 ГБ

В этой теме нет новых непрочитанных сообщений. Танцующий с волками / Dances with Wolves [драма, приключения, вестерн, 1990] BDRip 1080p, Mvo [20th Anniversary Edition]

salma3

56 | 18

11.51 ГБ

В этой теме нет новых непрочитанных сообщений. Джо против вулкана / Joe Versus the Volcano [комедия, мелодрама, приключения, 1990] BDRip 720p, Dub

salma3

4 | 1

8.33 ГБ

В этой теме нет новых непрочитанных сообщений. Разочарованная / La désenchantée [драма, мелодрама, 1990] BDRip 720p, Avo

salma3

0 | 0

6.72 ГБ

В этой теме нет новых непрочитанных сообщений. Шагающий по ветру / Windwalker [вестерн, драма, приключения, 1980] BDRip 720p, Avo+Sub

salma3

107 | 34

4.35 ГБ

В этой теме нет новых непрочитанных сообщений. Человек с запада / Man of the West [драма, мелодрама, вестерн, 1958] BDRip 720p, Dvo

salma3

134 | 24

3.24 ГБ


Начать новую тему Ответить на тему  [ 1 сообщение ] 




Для Мосгорсуда, Роскомнадзора и рекламодателей:: mosgorsud-torrent[собачка]yandex.ru
cron