Торрент файл
скачать торрент магнет ссылка Добавлен: 28 дек 2015, 12:34
Размер: 9.43 ГБ
Сидеров: 31
Личеров: 0
Автор

СообщениеДобавлено: 28 дек 2015, 12:34 

Не в сети
Супермодератор
Аватара пользователя
Дата регистрации:
15 фев 2012, 16:44
Возраст: 28
Спасибо: 6928 / 2147
Сообщения: 52985
Год выпуска: 1985
Страна: США
Жанр: фэнтези, комедия, приключения, семейный
Продолжительность: 01:31:27
Перевод: дублированный

Режиссёр: Тим Бертон

В ролях: Джадд Омен, Элизабет Дэйли, Грегори Браун, Старлетта Дюпуа, Дэймон Мартин, Питер Луни, Дэвид Глассер, Билл Кэйбл, Марк Эверетт, Пол Рубенс, Монте Лэндис, Дайан Салинджер, Марк Холтон, Ирвинг Хеллман, Дэрил Роач

Описание: Пи-Ви, симпатичнейший бездельник, отправляется в дорогу, где ему предстоит встретить самых неожиданных людей: жуликов, хулиганов, ковбоев, экстравагантных официанток и многих других...



Качество: BDRip 1080p Сравнение с исходником
Формат: MKV
Видео: MPEG-4 AVC, 12.8 Mбит/с, 1908x1080, 23,976 кадра/с
Аудио 1: русский, AC3, 192 kbps, 2 ch, 48 kHz [дублированный]
Аудио 2: английский, DTS, 1509 kbps, 6 ch, 48 kHz [оригинал]
Субтитры 1: русские
Субтитры 2: английские

Общее
Уникальный идентификатор : 219328262670361589482304100276840574523 (0xA501163D4A850D9095BCFFD64A962E3B)
Полное имя : D:VideoБольшое приключение Пи-Ви.1985.BDRip.1080p.mkv
Формат : Matroska
Версия формата : Version 4 / Version 2
Размер файла : 9,43 Гбайт
Продолжительность : 1 ч. 31 м.
Общий поток : 14,8 Мбит/сек
Дата кодирования : UTC 2015-12-28 03:36:53
Программа кодирования : mkvmerge v8.2.0 ('World of Adventure') 64bit
Библиотека кодирования : libebml v1.3.1 + libmatroska v1.4.2
DURATION : 01:31:27.488000000
NUMBER_OF_FRAMES : 514452
NUMBER_OF_BYTES : 1035078128
_STATISTICS_WRITING_APP : mkvmerge v8.2.0 ('World of Adventure') 64bit
_STATISTICS_WRITING_DATE_UTC : 2015-12-28 03:36:53
_STATISTICS_TAGS : BPS DURATION NUMBER_OF_FRAMES NUMBER_OF_BYTES

Видео
Идентификатор : 1
Формат : AVC
Формат/Информация : Advanced Video Codec
Профиль формата : High@L4.1
Параметр CABAC формата : Да
Параметр ReFrames формата : 4 кадра
Идентификатор кодека : V_MPEG4/ISO/AVC
Продолжительность : 1 ч. 31 м.
Битрейт : 12,8 Мбит/сек
Ширина : 1908 пикселей
Высота : 1080 пикселей
Соотношение сторон : 16:9
Режим частоты кадров : Постоянный
Частота кадров : 23,976 кадра/сек
Цветовое пространство : YUV
Субдискретизация насыщенности : 4:2:0
Битовая глубина : 8 бит
Тип развёртки : Прогрессивная
Бит/(Пиксели*Кадры) : 0.259
Размер потока : 8,16 Гбайт (86%)
Библиотека кодирования : x264 core 146 r2538 121396c
Настройки программы : cabac=1 / ref=4 / deblock=1:-3:-3 / analyse=0x3:0x113 / me=umh / subme=10 / psy=1 / psy_rd=1.00:0.15 / mixed_ref=1 / me_range=32 / chroma_me=1 / trellis=2 / 8x8dct=1 / cqm=0 / deadzone=21,11 / fast_pskip=1 / chroma_qp_offset=-3 / threads=6 / lookahead_threads=1 / sliced_threads=0 / nr=0 / decimate=1 / interlaced=0 / bluray_compat=0 / constrained_intra=0 / bframes=8 / b_pyramid=2 / b_adapt=2 / b_bias=0 / direct=1 / weightb=1 / open_gop=0 / weightp=2 / keyint=230 / keyint_min=23 / scenecut=40 / intra_refresh=0 / rc_lookahead=40 / rc=crf / mbtree=0 / crf=19.8 / qcomp=0.60 / qpmin=0 / qpmax=69 / qpstep=4 / vbv_maxrate=40000 / vbv_bufsize=50000 / crf_max=0.0 / nal_hrd=none / filler=0 / ip_ratio=1.40 / pb_ratio=1.30 / aq=1:1.00
Язык : English
Default : Да
Forced : Нет
DURATION : 01:31:26.523000000
NUMBER_OF_FRAMES : 131545
NUMBER_OF_BYTES : 8961862072
_STATISTICS_WRITING_APP : mkvmerge v8.2.0 ('World of Adventure') 64bit
_STATISTICS_WRITING_DATE_UTC : 2015-12-28 03:36:53
_STATISTICS_TAGS : BPS DURATION NUMBER_OF_FRAMES NUMBER_OF_BYTES

Аудио #1
Идентификатор : 2
Формат : AC-3
Формат/Информация : Audio Coding 3
Расширение режима : CM (complete main)
Параметр Endianness формата : Big
Идентификатор кодека : A_AC3
Продолжительность : 1 ч. 31 м.
Вид битрейта : Постоянный
Битрейт : 192 Кбит/сек
Каналы : 2 канала
Расположение каналов : Front: L R
Частота : 48,0 КГц
Метод сжатия : С потерями
Размер потока : 126 Мбайт (1%)
Заголовок : DUB
Язык : Russian
Default : Да
Forced : Нет

Аудио #2
Идентификатор : 3
Формат : DTS
Формат/Информация : Digital Theater Systems
Режим : 16
Параметр Endianness формата : Big
Идентификатор кодека : A_DTS
Продолжительность : 1 ч. 31 м.
Вид битрейта : Постоянный
Битрейт : 1509 Кбит/сек
Каналы : 6 каналов
Расположение каналов : Front: L C R, Side: L R, LFE
Частота : 48,0 КГц
Битовая глубина : 24 бит
Метод сжатия : С потерями
Размер потока : 987 Мбайт (10%)
Заголовок : Original
Язык : English
Default : Нет
Forced : Нет

Текст #1
Идентификатор : 4
Формат : UTF-8
Идентификатор кодека : S_TEXT/UTF8
Идентификатор кодека/Информация : UTF-8 Plain Text
Заголовок : русский
Язык : Russian
Default : Нет
Forced : Нет

Текст #2
Идентификатор : 5
Формат : UTF-8
Идентификатор кодека : S_TEXT/UTF8
Идентификатор кодека/Информация : UTF-8 Plain Text
Заголовок : английский
Default : Нет
Forced : Нет



_________________
Проголосуй за трекер Открытый торрент трекер - RUS-MEDIA.ORG

Проголосуй Открытый торрент трекер - RUS-MEDIA.ORG



реклама партнёра


Вернуться к началу
 Профиль Отправить личное сообщение  
 
   Похожие торренты   Автор   Торрент   Размер 
В этой теме нет новых непрочитанных сообщений. Удивительное приключение панды / The Amazing Panda Adventure [драма, приключения, семейный, 1995] WEB-DLRip, Dub

salma3

66 | 8

1.09 ГБ

В этой теме нет новых непрочитанных сообщений. Освободите Вилли 2: Новое приключение / Free Willy 2: The Adventure Home [драма, приключения, семейный, 1995] WEB-DL 720p, Mvo+Sub

salma3

13 | 33

3.24 ГБ

В этой теме нет новых непрочитанных сообщений. Возвращение в страну Оз / Return to Oz [ужасы, фэнтези, детектив, приключения, семейный, 1985] BDRip, Mvo

salma3

58 | 25

1.45 ГБ

В этой теме нет новых непрочитанных сообщений. Приключение мистера Пибоди и Шермана / Mr. Peabody & Sherman [фантастика, комедия, приключения, семейный, 2014] BDRip, Dub [Лицензия]

salma3

1346 | 38

1.45 ГБ

В этой теме нет новых непрочитанных сообщений. Простое желание / A Simple Wish [Фэнтези, приключения, комедия, семейный, 1997] BDRip 1080p, Mvo

salma3

4 | 4

9.57 ГБ

В этой теме нет новых непрочитанных сообщений. Леди-ястреб / Ladyhawke [Фэнтези, мелодрама, приключения, 1985] BDRip-HEVC 1080p, Mvo

salma3

6 | 1

7.22 ГБ

В этой теме нет новых непрочитанных сообщений. Аисты / Storks [мультфильм, фэнтези, комедия, приключения, семейный, 2016] BDRip 1080p, Dub [Лицензия]

salma3

59 | 14

8.86 ГБ


Начать новую тему Ответить на тему  [ 1 сообщение ] 




Для Мосгорсуда, Роскомнадзора и рекламодателей:: mosgorsud-torrent[собачка]yandex.ru
cron