Торрент файл
скачать торрент магнет ссылка Добавлен: 23 дек 2015, 12:27
Размер: 12.7 ГБ
Сидеров: 14
Личеров: 12
Автор

СообщениеДобавлено: 23 дек 2015, 12:27 

Не в сети
Супермодератор
Аватара пользователя
Дата регистрации:
15 фев 2012, 16:44
Возраст: 29
Спасибо: 7339 / 2147
Сообщения: 75713
h
Год выхода: 1979
Жанр: ужасы
Режиссер: Антонио Маргерити
В ролях: Ли Мэйджорс, Карен Блэк, Марго Хемингуэй, Мариза Беренсон, Джеймс Франсискус, Рой Броксмит, Дэн Пасторини, Фрэнк Пеше, Чарльз Гуардино, Энтони Штеффен, ...

О фильме: Группа грабителей оказывается в тонущей лодке на берегу озера. Они пытаются достать похищенные сокровища из воды, где обитает смертоносная пиранья.



Страна: Италия, Великобритания, Бразилия, США
Студия: Fawcett-Majors Productions, Filmar do Brasil, Incorporated Television Company (ITC)
Продолжительность: 01:40:30
Перевод:
Авторский (одноголосый, закадровый) Михалёв Алексей Михайлович
Авторский (одноголосый, закадровый) Володарский Леонид Вениаминович
Авторский (одноголосый, закадровый) Штейн Владимир Сергеевич

Файл
Кодек: x264
Качество: BDRip 1080p
Видео: 1920x1080, 16000 kbps, 23,976 fps
Звук:
Аудио #1: AC-3, 2 ch, 192 kbps (Rus) - AVO Михалёв Алексей Михайлович
Аудио #2: AC-3, 2 ch, 192 kbps (Rus) - AVO Володарский Леонид Вениаминович
Аудио #3: AC-3, 2 ch, 192 kbps (Rus) - AVO Штейн Владимир Сергеевич
Аудио #5: DTS, 2 ch, 1509 kbps (Eng)
Субтитры: нет

За исходник спасибо - Lucian666

Можно сравнить наполнение кадра BD и DVD:
x264 [info]: frame I:824 Avg QP:21.40 size:181302
x264 [info]: frame P:31163 Avg QP:23.24 size:112983
x264 [info]: frame B:112611 Avg QP:25.02 size: 74510
x264 [info]: consecutive B-frames: 1.5% 2.3% 11.4% 15.2% 17.2% 45.8% 4.0% 1.5% 0.4% 0.4% 0.1% 0.1% 0.2%

Общее
Уникальный идентификатор : 232427029367900321428320537262476981224 (0xAEDBD14C8F545735AB415EDB010773E8)
Полное имя : Рыба-убийца (Killer Fish) 1979 BDRip 1080p.mkv
Формат : Matroska
Версия формата : Version 2
Размер файла : 12,7 Гбайт
Продолжительность : 1 ч. 40 м.
Общий поток : 18,1 Мбит/сек
Дата кодирования : UTC 2015-12-22 14:20:03
Программа кодирования : mkvmerge v4.0.0 ('The Stars were mine') сборка от Jun 6 2010 16:18:42
Библиотека кодирования : libebml v1.0.0 + libmatroska v1.0.0

Видео
Идентификатор : 1
Формат : AVC
Формат/Информация : Advanced Video Codec
Профиль формата : High@L4.1
Параметр CABAC формата : Да
Параметр ReFrames формата : 4 кадра
Идентификатор кодека : V_MPEG4/ISO/AVC
Продолжительность : 1 ч. 40 м.
Битрейт : 16,0 Мбит/сек
Ширина : 1920 пикселей
Высота : 1080 пикселей
Соотношение сторон : 16:9
Режим частоты кадров : Постоянный
Частота кадров : 23,976 кадра/сек
Цветовое пространство : YUV
Субдискретизация насыщенности : 4:2:0
Битовая глубина : 8 бит
Тип развёртки : Прогрессивная
Бит/(Пиксели*Кадры) : 0.322
Размер потока : 11,0 Гбайт (86%)
Библиотека кодирования : x264 core 146 r2538 121396c
Настройки программы : cabac=1 / ref=4 / deblock=1:-3:-3 / analyse=0x3:0x133 / me=umh / subme=11 / psy=1 / psy_rd=1.00:0.00 / mixed_ref=1 / me_range=32 / chroma_me=1 / trellis=2 / 8x8dct=1 / cqm=0 / deadzone=21,11 / fast_pskip=1 / chroma_qp_offset=-4 / threads=12 / lookahead_threads=2 / sliced_threads=0 / nr=0 / decimate=0 / interlaced=0 / bluray_compat=0 / constrained_intra=0 / bframes=12 / b_pyramid=2 / b_adapt=2 / b_bias=0 / direct=3 / weightb=1 / open_gop=0 / weightp=2 / keyint=240 / keyint_min=23 / scenecut=40 / intra_refresh=0 / rc_lookahead=60 / rc=2pass / mbtree=0 / bitrate=16000 / ratetol=1.0 / qcomp=0.60 / qpmin=0 / qpmax=69 / qpstep=4 / cplxblur=20.0 / qblur=0.5 / vbv_maxrate=50000 / vbv_bufsize=62500 / nal_hrd=none / filler=0 / ip_ratio=1.40 / pb_ratio=1.30 / aq=1:0.80
Язык : English
Default : Нет
Forced : Нет

Аудио #1
Идентификатор : 2
Формат : AC-3
Формат/Информация : Audio Coding 3
Расширение режима : CM (complete main)
Параметр Endianness формата : Big
Идентификатор кодека : A_AC3
Продолжительность : 1 ч. 40 м.
Вид битрейта : Постоянный
Битрейт : 192 Кбит/сек
Каналы : 2 канала
Расположение каналов : Front: L R
Частота : 48,0 КГц
Метод сжатия : С потерями
Размер потока : 138 Мбайт (1%)
Заголовок : AVO Михалёв Алексей Михайлович [1944—1994]
Язык : Russian
Default : Нет
Forced : Нет

Аудио #2
Идентификатор : 3
Формат : AC-3
Формат/Информация : Audio Coding 3
Расширение режима : CM (complete main)
Параметр Endianness формата : Big
Идентификатор кодека : A_AC3
Продолжительность : 1 ч. 40 м.
Вид битрейта : Постоянный
Битрейт : 192 Кбит/сек
Каналы : 2 канала
Расположение каналов : Front: L R
Частота : 48,0 КГц
Метод сжатия : С потерями
Размер потока : 138 Мбайт (1%)
Заголовок : AVO Володарский Леонид Вениаминович
Язык : Russian
Default : Нет
Forced : Нет

Аудио #3
Идентификатор : 4
Формат : AC-3
Формат/Информация : Audio Coding 3
Расширение режима : CM (complete main)
Параметр Endianness формата : Big
Идентификатор кодека : A_AC3
Продолжительность : 1 ч. 40 м.
Вид битрейта : Постоянный
Битрейт : 192 Кбит/сек
Каналы : 2 канала
Расположение каналов : Front: L R
Частота : 48,0 КГц
Метод сжатия : С потерями
Размер потока : 138 Мбайт (1%)
Заголовок : AVO Штейн Владимир Сергеевич
Язык : Russian
Default : Нет
Forced : Нет

Аудио #4
Идентификатор : 5
Формат : DTS
Формат/Информация : Digital Theater Systems
Режим : 16
Параметр Endianness формата : Big
Идентификатор кодека : A_DTS
Продолжительность : 1 ч. 40 м.
Вид битрейта : Постоянный
Битрейт : 1509 Кбит/сек
Каналы : 2 канала
Расположение каналов : Front: L R
Частота : 48,0 КГц
Битовая глубина : 24 бит
Метод сжатия : С потерями
Размер потока : 1,06 Гбайт (8%)
Язык : English
Default : Нет
Forced : Нет



_________________
Проголосуй за трекер Открытый торрент трекер - RUS-MEDIA.ORG

Проголосуй Открытый торрент трекер - RUS-MEDIA.ORG


Вернуться к началу
 Профиль Отправить личное сообщение  
 
   Похожие торренты   Автор   Торрент   Размер 
В этой теме нет новых непрочитанных сообщений. Рыба-убийца / Killer Fish [Ужасы, 1979] BDRemux 1080p, Avo

salma3

0 | 0

20.52 ГБ

В этой теме нет новых непрочитанных сообщений. Крупная рыба / Big Fish [фэнтези, драма, приключения, 2003] BDRip 1080p, Dub+Sub

salma3

69 | 32

7.95 ГБ

В этой теме нет новых непрочитанных сообщений. Крокодил-убийца / Killer Crocodile [Ужасы, 1989] DVDRip-AVC, Mvo

salma3

0 | 0

746.14 МБ

В этой теме нет новых непрочитанных сообщений. Крокодил-убийца / Killer Crocodile [ужасы, 1989] DVDRip, Avo

salma3

14 | 1

716.25 МБ

В этой теме нет новых непрочитанных сообщений. Крокодил-убийца 2 / Killer Crocodile 2 [ужасы, 1990] DVDRip, Avo

salma3

9 | 3

699.62 МБ

В этой теме нет новых непрочитанных сообщений. Nat Geo Wild: Амазонская электрическая рыба / Amazon's electric fish (2015) HDTVRip-AVC | P1

salma3

0 | 0

848.14 МБ

В этой теме нет новых непрочитанных сообщений. Nat Geo Wild: Амазонская электрическая рыба / Amazon's electric fish (2015) HDTV 1080i | P1

salma3

0 | 0

2.21 ГБ


Начать новую тему Ответить на тему  [ 1 сообщение ] 




Для Мосгорсуда, Роскомнадзора и рекламодателей:: mosgorsud-torrent[собачка]yandex.ru
cron